<?xml version="1.0" standalone="no"?>
<!DOCTYPE svg PUBLIC "-//W3C//DTD SVG 1.1//EN" "http://www.w3.org/Graphics/SVG/1.1/DTD/svg11.dtd" >
<svg xmlns="http://www.w3.org/2000/svg">
<metadata>
Created by FontPrep 20130207 at Sat Sep  6 09:48:17 2014
 By Alok Jain
(c) Copyright 1998, Neufville Digital. ALL RIGHTS RESERVED. This font is licensed, not sold, and may not be reproduced without the written consent of Neufville Digital. Parts (c) Visualogik Technology &#38; Design, 1998.
</metadata>
<defs>
<font id="6e1e5153b1feaeba3722775467f6cd3b" horiz-adv-x='1024' >
  <font-face 
    font-family="Futura-Medium"
    font-weight="500"
    font-stretch="normal"
    units-per-em="2048"
    panose-1="2 11 6 2 2 2 4 2 3 3"
    ascent="1638"
    descent="-410"
    x-height="974"
    cap-height="1544"
    bbox="-1074 -591 2707 2164"
    underline-thickness="160"
    underline-position="-120"
    unicode-range="U+0008-FB02"
  />
<missing-glyph horiz-adv-x="1024" 
d="M781 43v1458h-538v-1458h538zM200 0v1544h624v-1544h-624z" />
    <glyph glyph-name="fi" unicode="fi" horiz-adv-x="1087" 
d="M944 0h-225v974h225v-974zM944 1231h-225v91q1 74 -49 130t-124 57t-122 -55q-50 -56 -50 -132v-348h258v-210h-258v-764h-225v764h-80v210h80v348q1 164 117 280t280 117q164 -1 282 -117q116 -116 116 -280v-91z" />
    <glyph glyph-name="fl" unicode="fl" horiz-adv-x="1087" 
d="M944 0h-225v1322q0 74 -50 130t-122.5 57t-122.5 -55t-50 -132v-348h258v-210h-258v-764h-225v764h-80v210h80v348q0 164 117 280t281.5 116t280.5 -116t116 -280v-1322z" />
    <glyph glyph-name=".notdef" horiz-adv-x="1024" 
d="M781 43v1458h-538v-1458h538zM200 0v1544h624v-1544h-624z" />
    <glyph glyph-name=".null" horiz-adv-x="0" 
 />
    <glyph glyph-name="nonmarkingreturn" horiz-adv-x="682" 
 />
    <glyph glyph-name="controlNULL" horiz-adv-x="0" 
 />
    <glyph glyph-name="controlNULL" horiz-adv-x="0" 
 />
    <glyph glyph-name="controlBS" horiz-adv-x="0" 
 />
    <glyph glyph-name="controlHT" unicode="&#x9;" horiz-adv-x="632" 
 />
    <glyph glyph-name="controlCR" unicode="&#xd;" horiz-adv-x="0" 
 />
    <glyph glyph-name="controlGS" horiz-adv-x="0" 
 />
    <glyph glyph-name="space" unicode=" " horiz-adv-x="632" 
 />
    <glyph glyph-name="exclam" unicode="!" horiz-adv-x="679" 
d="M227 344v1200h226v-1200h-226zM201 110q0 58 41 99t98 41t98 -41t41 -99q-1 -58 -41 -98t-98 -40t-98.5 40t-40.5 98z" />
    <glyph glyph-name="quotedbl" unicode="&#x22;" horiz-adv-x="840" 
d="M688 923h-170l-43 621h256zM322 923h-170l-43 621h256z" />
    <glyph glyph-name="numbersign" unicode="#" horiz-adv-x="1264" 
d="M803 934h-294l-36 -287h296zM1227 1110v-176h-243l-36 -287h222v-176h-244l-59 -478l-176 23l57 455h-297l-60 -478l-178 23l57 459h-228v172h253l36 287h-231v176h253l55 448l175 -23l-53 -425h295l56 448l175 -23l-53 -425h224z" />
    <glyph glyph-name="dollar" unicode="$" horiz-adv-x="1264" 
d="M743 1763v-196q118 -19 193 -78t143 -181l-195 -109q-88 160 -230 160q-88 0 -146 -52.5t-58 -126.5t46 -120t178 -106q251 -113 328 -201q113 -121 113 -293q1 -172 -101 -302t-271 -174v-207h-175v201q-196 32 -299 135t-152 318l220 46q45 -152 110 -217
q67 -62 179 -62t186 70t73 176q0 105 -64 167t-251 146q-186 84 -247 157q-97 109 -97 261q0 220 130.5 295.5t211.5 96.5v196h175z" />
    <glyph glyph-name="percent" unicode="%" horiz-adv-x="1876" 
d="M1229 349q-1 -82 57 -140t140 -58t140 58t58 140t-58 140t-139 58q-82 0 -140 -58t-58 -140zM1054 350q0 148 111 256q113 107 263 107q150 1 261 -107q110 -108 110 -258t-110 -256t-264 -106t-263 108q-108 108 -108 256zM1326 1571l109 -62l-884 -1534l-110 66z
M251 1196q0 -82 58 -140t140 -58t140 58t58 140t-58 139.5t-140 57.5t-140 -57.5t-58 -139.5zM77 1198q0 148 111 255q113 107 263 107t260 -108t110 -256q0 -150 -109.5 -257t-263.5 -107t-263 109q-108 109 -108 257z" />
    <glyph glyph-name="ampersand" unicode="&#x26;" horiz-adv-x="1497" 
d="M833 1242q0 58 -41 96t-107 38t-109 -38t-43 -101t54 -129l58 -70q3 -5 12 -15l19 14q100 76 129 112q28 35 28 93zM348 418q0 -82 77 -161q80 -77 176 -77q135 0 311 177l-305 371q-155 -108 -207 -168t-52 -142zM624 -30q-217 0 -360 131q-140 132 -140 326
q0 231 222 384l101 69q2 1 7 5t14 11q-153 163 -153 320t102 255q103 98 265 98t266 -95t104 -240q0 -100 -56 -181t-204 -194l278 -336q112 124 171 201l152 -156q-47 -67 -182 -215l286 -353h-290l-154 189q-212 -219 -429 -219z" />
    <glyph glyph-name="quotesingle" unicode="'" horiz-adv-x="474" 
d="M322 923h-170l-43 621h256z" />
    <glyph glyph-name="parenleft" unicode="(" horiz-adv-x="750" 
d="M611 1626q-197 -472 -197 -920q0 -349 44 -571t153 -483l-208 -80q-218 457 -218 1067t218 1067z" />
    <glyph glyph-name="parenright" unicode=")" horiz-adv-x="750" 
d="M337 638q0 285 -45 506q-44 221 -153 482l208 80q218 -457 218 -1067t-218 -1067l-208 80q110 261 153 481q45 220 45 505z" />
    <glyph glyph-name="asterisk" unicode="*" horiz-adv-x="1264" 
d="M546 1419l-15 270h201l-16 -270l253 98l62 -191l-262 -68l171 -210l-162 -118l-147 228l-146 -228l-163 118l172 209l-262 69l62 191z" />
    <glyph glyph-name="plus" unicode="+" horiz-adv-x="1264" 
d="M99 710v186h440v432h185v-432h440v-186h-440v-432h-185v432h-440z" />
    <glyph glyph-name="comma" unicode="," horiz-adv-x="632" 
d="M281 289l200 -78l-285 -571l-152 63z" />
    <glyph glyph-name="hyphen" unicode="-" horiz-adv-x="446" 
d="M0 593h446v-196h-446v196z" />
    <glyph glyph-name="period" unicode="." horiz-adv-x="632" 
d="M177 110q0 58 41 99t98 41t98 -41t41 -99q-1 -58 -41 -98t-98 -40t-98.5 40t-40.5 98z" />
    <glyph glyph-name="slash" unicode="/" horiz-adv-x="1061" 
d="M868 1706l186 -82l-884 -2046l-184 83z" />
    <glyph glyph-name="zero" unicode="0" horiz-adv-x="1264" 
d="M949 773q0 253 -90 419q-91 166 -227 167t-226 -165t-90 -418t89 -420t227 -169q138 1 227 167q90 166 90 419zM633 -25.5q-218 -0.5 -382 209.5t-164 588t172 599q154 199 373 199t373 -199q172 -221 172 -599t-172 -598q-154 -199 -372 -199.5z" />
    <glyph glyph-name="one" unicode="1" horiz-adv-x="1264" 
d="M555 1326h-267l128 218h372v-1544h-233v1326z" />
    <glyph glyph-name="two" unicode="2" horiz-adv-x="1264" 
d="M1088 219v-219h-1037l536 649q164 202 218 291q53 90 53 165q0 108 -76 181t-188 73q-234 0 -268 -277h-232q56 488 493 488q211 0 355 -134t143 -332q0 -126 -64 -243t-268 -358l-240 -284h575z" />
    <glyph glyph-name="three" unicode="3" horiz-adv-x="1264" 
d="M530 717v199q148 0 199 33q91 57 91 171t-66 176t-166 63q-100 0 -153 -47q-51 -48 -76 -162h-232q36 218 148 319.5t314 101.5q202 1 330 -119t128 -320t-168 -318q192 -113 192 -367q0 -208 -140 -340t-359 -132q-279 0 -414 205q-56 86 -71 238h225q18 -112 88 -171.5
t182 -59.5t186 76t74 194q0 156 -111 222q-65 38 -201 38z" />
    <glyph glyph-name="four" unicode="4" horiz-adv-x="1264" 
d="M777 431v517l-356 -517h356zM1010 431h164v-212h-164v-219h-233v219h-758l991 1440v-1228z" />
    <glyph glyph-name="five" unicode="5" horiz-adv-x="1264" 
d="M586 1074q226 0 370 -152t144 -391q0 -240 -164 -398t-413 -158q-307 0 -484 288l176 149q73 -124 147 -174t198 -51t218 99q95 100 95 246t-94 242t-243 95q-149 0 -263 -137h-77l243 812h638v-218h-476l-76 -256q34 4 61 4z" />
    <glyph glyph-name="six" unicode="6" horiz-adv-x="1264" 
d="M632 187q122 -1 206 85q86 86 86 206t-86 206t-206 85q-122 0 -207 -85t-85 -206t85 -206t207 -85zM690 976q188 0 324 -143t137 -349t-151 -358t-363 -151q-211 0 -369 149q-155 148 -155 342t151 399l540 733l171 -128l-369 -502q60 8 84 8z" />
    <glyph glyph-name="seven" unicode="7" horiz-adv-x="1264" 
d="M106 1326v218h1151l-974 -1597l-185 117l770 1262h-762z" />
    <glyph glyph-name="eight" unicode="8" horiz-adv-x="1264" 
d="M632 701q-106 0 -180 -75q-76 -74 -76 -180t74 -183q76 -76 182 -76q106 -1 181 75t75 182t-75 181.5t-181 75.5zM405 1128q-1 -96 67 -164t164 -67q96 0 163.5 68t67.5 163t-68 163t-163 68t-163 -67.5t-68 -163.5zM186 1120q0 198 129 324q131 126 323 126t320 -126
t128 -320t-169 -320q93 -50 147 -146t53 -216q0 -205 -133.5 -336t-345.5 -131t-352 132t-139 332q0 260 209 364q-170 119 -170 317z" />
    <glyph glyph-name="nine" unicode="9" horiz-adv-x="1264" 
d="M924 1067q0 121 -86 207t-206 85q-120 1 -206 -85t-86 -207t86 -207t206 -86t206 86t86 207zM573 569q-187 1 -323 143t-137 348t151 358t364 152t367 -150q156 -150 156 -340q0 -192 -152 -401l-539 -732l-171 127l369 503q-60 -8 -85 -8z" />
    <glyph glyph-name="colon" unicode=":" horiz-adv-x="632" 
d="M316 724q-58 0 -98 40t-41 98q0 58 41 98.5t98 40.5t98 -40.5t41 -98.5q-1 -58 -41 -98t-98 -40zM177 110q0 58 41 99t98 41t98 -41t41 -99q-1 -58 -41 -98t-98 -40t-98.5 40t-40.5 98z" />
    <glyph glyph-name="semicolon" unicode=";" horiz-adv-x="632" 
d="M365 724q-59 0 -99 40t-40 98t41 98.5t98 40.5t98 -40.5t41 -98.5t-40 -98t-99 -40zM281 289l200 -78l-285 -571l-152 63z" />
    <glyph glyph-name="less" unicode="&#x3c;" horiz-adv-x="1264" 
d="M1134 1372v-230l-758 -359l758 -359v-228l-1004 490v197z" />
    <glyph glyph-name="equal" unicode="=" horiz-adv-x="1264" 
d="M99 556v170h1065v-170h-1065zM99 880v170h1065v-170h-1065z" />
    <glyph glyph-name="greater" unicode="&#x3e;" horiz-adv-x="1264" 
d="M130 195v230l757 358l-757 360v228l1003 -490v-197z" />
    <glyph glyph-name="question" unicode="?" horiz-adv-x="1002" 
d="M642 110q0 -58 -40 -98t-99 -40t-99 40t-40 98t41 99t98 41t98 -41t41 -99zM124 1198q0 158 106 263t270 105q162 0 271 -106t109 -267t-109 -261q-69 -63 -260 -122q-130 -40 -130 -126q0 -48 34.5 -82.5t83.5 -34.5q110 0 120 154h226q0 -152 -81 -245
q-105 -121 -259 -121q-153 1 -251 101t-98 231t62 201t208 124q148 54 188 87t39.5 102t-42 109.5t-110.5 40.5t-110 -40t-41 -109q0 -31 12 -86h-233q-5 65 -5 82z" />
    <glyph glyph-name="at" unicode="@" horiz-adv-x="1803" 
d="M1124 778q0 106 -63 167q-65 62 -162 62q-97 1 -161 -77t-65 -190q0 -112 51.5 -179t145.5 -67t174 89t80 195zM950 -26q-302 0 -514 151q-155 110 -242 281q-86 180 -86 366q0 339 239 569t576 230t555 -197t217 -492q-1 -228 -119 -392t-278 -164q-128 0 -174 121
q-123 -126 -281 -126q-158 1 -267 119t-109 308t121 318q120 128 296 129q176 0 279 -130l14 111h151l-63 -525q-7 -51 -7 -105q0 -75 62 -75q88 0 158 122t70 277q0 246 -172 404t-443 158t-461 -190t-190 -468q0 -154 68 -302q69 -139 193 -229q166 -120 408 -120t498 119
l15 8l52 -144q-264 -132 -566 -132z" />
    <glyph glyph-name="A" unicode="A" horiz-adv-x="1517" 
d="M997 594l-229 525l-240 -525h469zM1092 375h-661l-172 -375h-251l764 1641l737 -1641h-255z" />
    <glyph glyph-name="B" unicode="B" horiz-adv-x="1211" 
d="M418 219h144q158 1 234 65t76 166t-74 168q-74 68 -262 68h-118v-467zM491 881q251 0 251 227q0 109 -62 165.5t-180 56.5h-82v-449h73zM185 0v1544h232q155 0 247 -24q181 -47 260 -228q39 -89 39 -180q0 -166 -127 -281q122 -43 194 -147t72 -242q0 -181 -128 -306
q-78 -76 -178 -106t-258 -30h-353z" />
    <glyph glyph-name="C" unicode="C" horiz-adv-x="1435" 
d="M897 1354q-227 0 -391 -170t-163 -416q0 -244 164 -411t402 -167q123 0 209 40q92 38 208 136v-281q-200 -113 -420 -113q-331 0 -565 231q-233 233 -233 545t195 543q240 283 621 283q208 0 402 -113v-276q-202 169 -429 169z" />
    <glyph glyph-name="D" unicode="D" horiz-adv-x="1487" 
d="M418 219h105q157 0 261 34t188 110q172 157 172 410t-162 403t-459 149h-105v-1106zM185 0v1544h324q233 0 368 -46q145 -45 263 -153q239 -217 239 -573t-249 -576q-126 -110 -258 -153t-367 -43h-320z" />
    <glyph glyph-name="E" unicode="E" 
d="M1037 1325h-619v-371h601v-219h-601v-516h619v-219h-852v1544h852v-219z" />
    <glyph glyph-name="F" unicode="F" horiz-adv-x="1041" 
d="M956 1325h-538v-371h519v-219h-519v-735h-233v1544h771v-219z" />
    <glyph glyph-name="G" unicode="G" horiz-adv-x="1725" 
d="M979 804h638v-51q-1 -174 -41 -303t-135 -237q-215 -242 -543 -242q-328 1 -559 235t-231 566t235 568q235 234 572 234q181 0 335 -74t298 -240l-166 -159q-190 253 -463 253q-245 0 -411 -168t-166 -421q0 -254 179 -415t366 -161q187 1 324 117t153 279h-385v219z" />
    <glyph glyph-name="H" unicode="H" horiz-adv-x="1502" 
d="M418 940h666v604h233v-1544h-233v721h-666v-721h-233v1544h233v-604z" />
    <glyph glyph-name="I" unicode="I" horiz-adv-x="604" 
d="M418 1544v-1544h-233v1544h233z" />
    <glyph glyph-name="J" unicode="J" horiz-adv-x="840" 
d="M655 1544v-999q0 -179 -25 -273t-85 -163q-117 -137 -310 -137q-146 0 -273 76l114 199q85 -57 159 -57q104 0 145 79t41 276v999h234z" />
    <glyph glyph-name="K" unicode="K" horiz-adv-x="1357" 
d="M418 0h-233v1544h233v-616l601 616h311l-698 -699l702 -845h-312l-556 687l-48 -48v-639z" />
    <glyph glyph-name="L" unicode="L" horiz-adv-x="908" 
d="M418 1544v-1325h454v-219h-687v1544h233z" />
    <glyph glyph-name="M" unicode="M" horiz-adv-x="1969" 
d="M131 0l325 1660l530 -1200l549 1200l292 -1660h-239l-149 932l-457 -1003l-444 1004l-166 -933h-241z" />
    <glyph glyph-name="N" unicode="N" horiz-adv-x="1729" 
d="M185 0v1649l1126 -1178v1073h233v-1638l-1126 1175v-1081h-233z" />
    <glyph glyph-name="O" unicode="O" horiz-adv-x="1830" 
d="M343 770q-1 -250 171 -415t406 -165t400 169q167 169 167 415q-1 246 -165 412q-164 168 -406 168t-407 -167q-166 -167 -166 -417zM108 779q0 326 238 560t571 234t569 -236t236 -568q0 -333 -238 -565t-577 -232q-299 0 -537 207q-262 229 -262 600z" />
    <glyph glyph-name="P" unicode="P" horiz-adv-x="1106" 
d="M418 843h87q321 0 321 247q0 239 -331 239h-77v-486zM418 627v-627h-233v1544h264q193 0 293 -27t176 -102q133 -130 133 -335t-142 -329t-383 -124h-108z" />
    <glyph glyph-name="Q" unicode="Q" horiz-adv-x="1830" 
d="M1487 780q0 238 -165.5 406t-411.5 168t-406 -168t-161 -420t169 -414t392 -162q151 0 273 69l-363 352h301l224 -223q148 154 148 392zM912 -28q-307 0 -545 208q-259 230 -259 582t242 582t550 229q309 0 542 -198q280 -238 280 -621q0 -300 -221 -533l255 -249h-293
l-121 124q-193 -124 -430 -124z" />
    <glyph glyph-name="R" unicode="R" horiz-adv-x="1233" 
d="M418 835h74q331 0 331 253q0 237 -322 237h-83v-490zM418 632v-632h-233v1544h273q306 0 449 -122t143 -331q0 -164 -94 -282t-248 -151l478 -658h-285l-441 632h-42z" />
    <glyph glyph-name="S" unicode="S" horiz-adv-x="1194" 
d="M630 1354q-88 0 -152 -54t-64 -137q0 -113 168 -182l154 -63q188 -76 275 -185.5t87 -268.5q0 -212 -142 -352t-350 -140q-206 0 -337 119q-129 119 -161 335l236 52q16 -136 56 -188q72 -100 196 -100t195.5 73t71.5 195t-81 175t-139 78l-149 62q-317 134 -317 392
q0 173 133 291t331 118q267 0 417 -260l-189 -112q-53 92 -101 120q-50 32 -138 32z" />
    <glyph glyph-name="T" unicode="T" horiz-adv-x="988" 
d="M611 1325v-1325h-233v1325h-355v219h942v-219h-354z" />
    <glyph glyph-name="U" unicode="U" horiz-adv-x="1513" 
d="M418 1544v-930q0 -199 65 -291q97 -133 273 -133t274 133q65 89 65 291v930h233v-994q0 -244 -152 -402q-171 -176 -420 -176t-410 167t-161 411v994h233z" />
    <glyph glyph-name="V" unicode="V" horiz-adv-x="1385" 
d="M263 1544l427 -1070l433 1070h255l-693 -1660l-677 1660h255z" />
    <glyph glyph-name="W" unicode="W" horiz-adv-x="2172" 
d="M261 1544l402 -1032l420 1107l402 -1107l427 1032h253l-690 -1642l-397 1094l-414 -1095l-656 1643h253z" />
    <glyph glyph-name="X" unicode="X" horiz-adv-x="1265" 
d="M508 807l-425 737h265l295 -523l310 523h267l-445 -737l467 -807h-261l-342 591l-352 -591h-264z" />
    <glyph glyph-name="Y" unicode="Y" horiz-adv-x="1229" 
d="M730 0h-233v667l-504 877h268l353 -617l354 617h268l-506 -877v-667z" />
    <glyph glyph-name="Z" unicode="Z" horiz-adv-x="1280" 
d="M1193 219v-219h-1124l758 1325h-634v219h1017l-758 -1325h741z" />
    <glyph glyph-name="bracketleft" unicode="[" horiz-adv-x="732" 
d="M430 1478v-1676h194v-212h-423v2099h423v-211h-194z" />
    <glyph glyph-name="backslash" unicode="\" horiz-adv-x="1061" 
d="M194 1706l883 -2045l-184 -83l-885 2046z" />
    <glyph glyph-name="bracketright" unicode="]" horiz-adv-x="732" 
d="M303 -198v1676h-195v211h423v-2099h-423v212h195z" />
    <glyph glyph-name="asciicircum" unicode="^" 
d="M281 812h-245l391 739h304l392 -739h-246l-298 555z" />
    <glyph glyph-name="underscore" unicode="_" 
d="M0 -129h1158v-210h-1158v210z" />
    <glyph glyph-name="grave" unicode="`" 
d="M197 1454l211 110l276 -364l-124 -76z" />
    <glyph glyph-name="a" unicode="a" horiz-adv-x="1228" 
d="M326 486q0 -136 76 -224t197 -89t198 87t77 225t-77 225t-197 88t-197 -88t-77 -224zM860 974h226v-974h-226v102q-139 -130 -299 -130q-202 0 -334 146q-131 149 -131 370t131 367t315 146t318 -140v113z" />
    <glyph glyph-name="b" unicode="b" horiz-adv-x="1228" 
d="M902 484q0 136 -76 225t-197 89q-119 0 -197 -86t-78 -227q0 -140 76 -226t196 -86q120 -1 198 87t78 224zM367 1689v-828q135 140 319 140q184 -1 315 -147t131 -368t-132 -368t-316 -146t-317 130v-102h-225v1689h225z" />
    <glyph glyph-name="c" unicode="c" horiz-adv-x="976" 
d="M621 798q-127 0 -211 -89t-84 -225t82 -223q82 -88 208 -88q81 1 142 35t142 132v-297q-137 -71 -274 -71q-226 0 -378 146t-152 364.5t154 368.5t378 150q144 0 272 -69v-299q-78 93 -138 129t-141 36z" />
    <glyph glyph-name="d" unicode="d" horiz-adv-x="1228" 
d="M326 486q0 -136 76 -224t197 -89t198 87t77 225t-77 225t-197 88t-197 -88t-77 -224zM860 1689h226v-1689h-226v102q-133 -130 -317 -130t-316 146q-131 150 -131 370t130 366t315 147q184 0 319 -140v828z" />
    <glyph glyph-name="e" unicode="e" horiz-adv-x="1133" 
d="M571 798q-126 0 -170 -69t-55 -111h452q-47 180 -227 180zM574 173q96 0 151 40q54 40 123 148l190 -106q-129 -220 -256.5 -251.5t-203.5 -31.5q-218 0 -350 140t-132 373q0 232 128 375q129 141 343 141q215 -1 339 -137t124 -377l-1 -53h-698q9 -120 78 -190t165 -71z
" />
    <glyph glyph-name="f" unicode="f" horiz-adv-x="608" 
d="M375 764v-764h-226v764h-80v210h80v376q0 184 64 260q88 106 256 106q60 0 151 -35v-230l-23 12q-73 37 -127 37t-74 -42q-21 -42 -21 -163v-321h245v-210h-245z" />
    <glyph glyph-name="g" unicode="g" horiz-adv-x="1226" 
d="M595 172.5q129 -0.5 201 89.5t72 228t-76 223q-76 86 -201 86t-195 -90t-70 -224t70 -223t199 -89.5zM1084 23q0 -129 -20 -227t-91 -176q-132 -152 -363 -152q-195 0 -323 106t-148 298h226q13 -72 43 -111q70 -91 204 -91q247 0 247 303v136q-134 -137 -321 -137
q-186 0 -314 145t-128 361t124 370t320 153q197 0 319 -137v110h225v-951z" />
    <glyph glyph-name="h" unicode="h" horiz-adv-x="1123" 
d="M142 1689h225v-796q120 108 275 108t254 -107q84 -93 84 -297v-597h-225v576q0 117 -41.5 169.5t-146.5 52.5t-153 -73q-47 -74 -47 -254v-471h-225v1689z" />
    <glyph glyph-name="i" unicode="i" horiz-adv-x="510" 
d="M108 1378q0 60 43 103t103 43t104 -42q43 -42 42.5 -103.5t-42.5 -104.5t-103 -43t-104 43.5t-43 103.5zM367 974v-974h-225v974h225z" />
    <glyph glyph-name="j" unicode="j" horiz-adv-x="510" 
d="M108 1378q0 60 43 103t103 43t104 -42q43 -42 42.5 -103.5t-42.5 -104.5t-103 -43t-104 43.5t-43 103.5zM367 974v-1504h-225v1504h225z" />
    <glyph glyph-name="k" unicode="k" horiz-adv-x="1020" 
d="M367 1689v-1030l317 315h302l-423 -409l454 -565h-292l-322 411l-36 -36v-375h-225v1689h225z" />
    <glyph glyph-name="l" unicode="l" horiz-adv-x="510" 
d="M367 1689v-1689h-225v1689h225z" />
    <glyph glyph-name="m" unicode="m" horiz-adv-x="1620" 
d="M142 974h225v-90q65 68 113 92t121 25q165 0 261 -144q106 144 287 144q329 0 329 -399v-602h-226v541q0 141 -34 199t-122 58q-86 0 -128.5 -70t-42.5 -225v-503h-226v538q0 260 -150 260q-95 0 -138.5 -71t-43.5 -224v-503h-225v974z" />
    <glyph glyph-name="n" unicode="n" horiz-adv-x="1123" 
d="M142 974h226v-90q118 117 277 117t247 -99t89 -305v-597h-226v544q1 144 -39 200t-148 55q-108 1 -154 -73t-46 -256v-470h-226v974z" />
    <glyph glyph-name="o" unicode="o" horiz-adv-x="1231" 
d="M326 485q0 -141 79 -227t211 -85q132 0 210.5 85t79 226.5t-79.5 227.5t-210 86t-210 -86t-80 -227zM612 -28q-220 0 -368 149t-148 367t151 365.5t369 147.5t368 -149q151 -149 151 -367t-151 -366q-152 -147 -372 -147z" />
    <glyph glyph-name="p" unicode="p" horiz-adv-x="1228" 
d="M354 488q0 -138 76 -227q76 -88 198 -88q120 0 197 88t77 224q0 137 -76 225t-198 88q-120 0 -197 -86t-77 -224zM367 -530h-225v1504h225v-106q133 133 318 133q185 1 316 -147t131 -370t-130 -366q-130 -146 -316 -146q-184 0 -319 137v-639z" />
    <glyph glyph-name="q" unicode="q" horiz-adv-x="1228" 
d="M326 486q0 -135 76 -224t196 -89q120 1 198 87t78 224t-77 226t-197 88t-197 -88q-77 -89 -77 -224zM860 -530v639q-134 -137 -318 -137t-316 146q-130 146 -130 366t131 369q132 148 316 148t317 -133v106h226v-1504h-226z" />
    <glyph glyph-name="r" unicode="r" horiz-adv-x="766" 
d="M142 974h225v-87q63 65 111 89t126 25q78 0 175 -58l-103 -206q-64 46 -125 46q-184 0 -184 -278v-505h-225v974z" />
    <glyph glyph-name="s" unicode="s" horiz-adv-x="831" 
d="M413 799q-31 0 -53 -20.5t-22 -52.5q0 -56 130 -111q179 -77 241 -142t62 -191q-1 -126 -103 -218t-245 -92q-245 0 -347 239l192 89q40 -70 71 -98t88 -29q114 0 114 104q0 60 -88 112q-34 17 -68.5 33t-100.5 48t-112 88q-46 54 -45 166q0 112 87 194q89 83 216 83
q187 0 278 -193l-186 -99q-44 90 -109 90z" />
    <glyph glyph-name="t" unicode="t" horiz-adv-x="560" 
d="M374 764v-764h-225v764h-96v210h96v357h225v-357h175v-210h-175z" />
    <glyph glyph-name="u" unicode="u" horiz-adv-x="1116" 
d="M367 974v-559q0 -242 191 -242t191 242v559h225v-564q0 -118 -28 -198t-98 -141q-114 -99 -290 -99t-289 99q-71 61 -99 133t-28 206v564h225z" />
    <glyph glyph-name="v" unicode="v" horiz-adv-x="1029" 
d="M263 974l252 -547l251 547h253l-506 -1041l-502 1041h252z" />
    <glyph glyph-name="w" unicode="w" horiz-adv-x="1585" 
d="M264 974l255 -556l275 645l277 -645l252 556h252l-510 -1047l-271 627l-274 -627l-509 1047h253z" />
    <glyph glyph-name="x" unicode="x" horiz-adv-x="1143" 
d="M444 527l-350 447h268l217 -284l221 284h276l-360 -447l417 -527h-268l-286 364l-293 -364h-275z" />
    <glyph glyph-name="y" unicode="y" horiz-adv-x="1113" 
d="M449 181l-438 793h261l298 -560l278 560h254l-776 -1504h-257z" />
    <glyph glyph-name="z" unicode="z" horiz-adv-x="1113" 
d="M1044 212v-212h-1025l631 764h-497v210h942l-630 -762h579z" />
    <glyph glyph-name="braceleft" unicode="{" horiz-adv-x="732" 
d="M628 1501h-28q-90 0 -117 -35t-27 -146v-402q0 -106 -29 -173q-29 -58 -111 -107q140 -84 140 -222v-453q0 -114 28 -150t116 -36l28 1v-202h-57l-71 -4q-147 0 -211 79t-64 260v492q0 52 -35 92.5t-95 54.5v193q70 16 100 60t30 131v446q0 171 63.5 248.5t204.5 77.5
l77 -2l58 -2v-201z" />
    <glyph glyph-name="bar" unicode="|" 
d="M463 1544h232v-1929h-232v1929z" />
    <glyph glyph-name="braceright" unicode="}" horiz-adv-x="732" 
d="M277 -41v400q0 107 29 174q29 58 111 107q-140 84 -140 221v455q-1 116 -29 151t-115 35l-28 -1v202h57l70 4q148 1 212 -79t64 -260v-494q0 -52 35 -92.5t95 -54.5v-192q-70 -17 -100 -61t-30 -130v-446q0 -171 -63.5 -248.5t-204.5 -77.5l-77 3h-58v203l28 -1
q89 1 117 35t27 147z" />
    <glyph glyph-name="asciitilde" unicode="~" horiz-adv-x="1544" 
d="M543 1703q103 0 245 -67t224 -67q80 0 111 40l61 76q22 28 41 28q46 0 107 -85q-77 -152 -156 -218q-80 -65 -180 -65t-250 67t-223 67q-25 -1 -59 -15t-45 -29l-64 -89q-20 -26 -39 -26q-45 0 -104 89l16 35q66 139 139 199t176 60z" />
    <glyph glyph-name="nonbreakingspace" unicode="&#xa0;" horiz-adv-x="632" 
 />
    <glyph glyph-name="exclamdown" unicode="&#xa1;" horiz-adv-x="679" 
d="M453 845v-1199h-226v1199h226zM479 1078q-1 -58 -41 -98t-98 -41q-58 0 -98.5 41t-40 99.5t40.5 98.5t98 40t98.5 -41t40.5 -99z" />
    <glyph glyph-name="cent" unicode="&#xa2;" horiz-adv-x="1264" 
d="M755 62h-171v208q-103 31 -172 73q-66 45 -116 109q-109 136 -109 320q0 383 397 510v197h171v-194q127 -14 229 -66v-300q-78 88 -141 123q-62 34 -144 34q-127 0 -207 -86t-81 -220q0 -134 79 -216t209 -82q89 0 149 35t136 131v-312q-117 -49 -229 -65v-199z" />
    <glyph glyph-name="sterling" unicode="&#xa3;" horiz-adv-x="1264" 
d="M679 1351q-121 -1 -199 -79t-78 -192t117 -319h301v-163h-234q26 -102 26 -145t-29 -156q45 -15 145 -54q98 -38 148 -38t83 31t82 116l186 -112q-67 -143 -147 -202t-179 -59q-100 0 -272 59q-167 64 -228 64t-93 -26t-72 -110l-200 101q92 149 152 195t167 59
q24 79 24 145t-35 132h-264v163h181q-97 193 -97 330q0 199 150 339q152 140 366 140t354 -140q138 -140 138 -361l-229 -85q0 167 -34 234q-66 133 -230 133z" />
    <glyph glyph-name="currency" unicode="&#xa4;" horiz-adv-x="1264" 
d="M986 852q0 148 -102 252t-250 104t-252 -104t-103 -252q-1 -148 103 -252t250 -103q146 -1 250 103t104 252zM67 850q0 168 110 326l-231 230l128 128l230 -230q160 111 328 111t326 -108l229 226l127 -128l-227 -226q111 -163 111 -327t-109 -321l230 -230l-126 -127
l-229 228q-156 -111 -325 -111t-335 109l-228 -226l-126 127l227 228q-110 153 -110 321z" />
    <glyph glyph-name="yen" unicode="&#xa5;" horiz-adv-x="1264" 
d="M79 872v164h240l-279 508h253l337 -617l340 617h253l-280 -508h241v-164h-331l-94 -169h425v-164h-445v-539h-217v539h-443v164h423l-93 169h-330z" />
    <glyph glyph-name="brokenbar" unicode="&#xa6;" 
d="M463 355h232v-740h-232v740zM463 1544h232v-786h-232v786z" />
    <glyph glyph-name="section" unicode="&#xa7;" horiz-adv-x="1264" 
d="M641 420q97 0 165 66t69 160q-1 94 -69 161q-68 66 -166 66q-98 -1 -165 -67q-68 -66 -68 -159t68 -161q69 -66 166 -66zM617 -217q97 0 151.5 54.5t54.5 150.5t-48 142q-48 44 -243 120t-270 159.5t-75 235.5q0 251 219 349q-180 108 -180 288t129 303q131 121 315 121
t306 -131t121 -339h-214q-17 254 -215 254q-96 0 -158 -58t-61 -152q0 -126 163 -184l102 -36q220 -79 301 -166t81 -225q0 -139 -50 -221t-167 -155q93 -63 131 -133t39 -171q-1 -183 -125 -301t-311 -119q-123 0 -223 51q-100 52 -157 142t-66 258h219q28 -237 231 -237z
" />
    <glyph glyph-name="dieresis" unicode="&#xa8;" 
d="M645 1283q1 59 43 101t101 41q59 1 101 -41t41 -102q0 -60 -42 -101q-44 -41 -102 -41t-100 42t-42 101zM227 1284q0 58 42 100t101 42t101 -42t42 -102t-42 -101q-45 -41 -103 -41t-100 42q-41 44 -41 102z" />
    <glyph glyph-name="copyright" unicode="&#xa9;" horiz-adv-x="1756" 
d="M873 1459q-275 -1 -471 -203t-196 -484t196 -484t476 -203q278 0 475 201q196 202 196 488q-1 153 -77 311t-202 248q-177 126 -397 126zM1679 774q0 -335 -234 -570t-566 -235.5t-567 235.5t-235 572q1 186 77 344t213 271q224 185 503 185q185 0 335 -70
q213 -94 343 -296t131 -436zM908 1094q-130 0 -223 -94t-93 -230t94 -228t222 -92t253 98l25 20v-204q-132 -72 -274 -72q-207 0 -352 139t-145 339t148 341t359 141q132 0 256 -67l8 -4v-202l-25 20q-123 95 -253 95z" />
    <glyph glyph-name="ordfeminine" unicode="&#xaa;" horiz-adv-x="838" 
d="M244 1220q0 -80 46 -132t118 -52q74 0 121 52t47 130q0 80 -47 132t-120 52t-119 -50q-46 -52 -46 -132zM567 1515h148v-589h-148v57q-87 -74 -197 -74t-193 88.5t-83 222.5t82 222t196 88t195 -78v63z" />
    <glyph glyph-name="guillemotleft" unicode="&#xab;" horiz-adv-x="1179" 
d="M328 495l300 -383l-150 -111l-385 493l385 510l149 -110zM756 495l300 -383l-150 -111l-385 493l385 510l149 -110z" />
    <glyph glyph-name="logicalnot" unicode="&#xac;" 
d="M849 0v402h-772v216h1004v-618h-232z" />
    <glyph glyph-name="softhyphen" unicode="&#xad;" horiz-adv-x="446" 
d="M0 593h446v-196h-446v196z" />
    <glyph glyph-name="registered" unicode="&#xae;" horiz-adv-x="1756" 
d="M873 1459q-275 -1 -471 -203t-196 -484t196 -484t476 -203q278 0 475 201q196 202 196 488q-1 153 -77 311t-202 248q-177 126 -397 126zM1679 774q0 -335 -234 -570t-566 -235.5t-567 235.5t-235 572q1 186 77 344t213 271q224 185 503 185q185 0 335 -70
q213 -94 343 -296t131 -436zM766 824h30q190 0 190 131q0 122 -184 122h-36v-253zM767 309h-177v926h185q194 -1 288 -75t94 -203q0 -87 -53 -160t-135 -97l-12 -4l301 -387h-216l-275 367v-367z" />
    <glyph glyph-name="macron" unicode="&#xaf;" 
d="M229 1343h701v-180h-701v180z" />
    <glyph glyph-name="macron" unicode="&#x2c9;" 
d="M229 1343h701v-180h-701v180z" />
    <glyph glyph-name="degree" unicode="&#xb0;" horiz-adv-x="1313" 
d="M658 1089q67 0 114 49q47 48 47 116q-1 68 -47 114t-114 45q-68 0 -116 -45t-47 -113q0 -68 48 -117t115 -49zM348 1260q0 129 91 218t219 89q128 -1 218 -91t90 -218t-90 -218t-218.5 -90t-219.5 90q-90 91 -90 220z" />
    <glyph glyph-name="plusminus" unicode="&#xb1;" horiz-adv-x="1264" 
d="M99 0v185h1065v-185h-1065zM99 710v186h440v432h185v-432h440v-186h-440v-401h-185v401h-440z" />
    <glyph glyph-name="twosuperior" unicode="&#xb2;" horiz-adv-x="896" 
d="M734 763v-145h-657l338 395q98 116 130 169q33 53 33 105t-44 93t-109 41q-137 0 -157 -164h-157q36 304 310 304q133 1 222 -81t89 -203q0 -74 -43 -151t-161 -209l-135 -154h341z" />
    <glyph glyph-name="threesuperior" unicode="&#xb3;" horiz-adv-x="896" 
d="M373 1041v132q96 0 126 18q52 31 52 95t-38 98.5t-99 34.5q-109 0 -131 -123h-157q23 138 92.5 201t197.5 63t209 -74q80 -74 80 -192t-97 -188q110 -68 110 -206t-88 -218q-89 -80 -224 -80q-275 0 -304 278h153q23 -137 159 -137q65 1 107 43t42 114t-44 106.5
t-146 34.5z" />
    <glyph glyph-name="acute" unicode="&#xb4;" 
d="M962 1454l-364 -330l-123 76l275 364z" />
    <glyph glyph-name="mu" unicode="&#xb5;" horiz-adv-x="1116" 
d="M142 -530v1504h225v-564q0 -237 191 -237t191 242v559h225v-564q0 -118 -28 -198t-99 -141q-114 -99 -282 -99q-116 0 -213 51l15 -553h-225z" />
    <glyph glyph-name="paragraph" unicode="&#xb6;" horiz-adv-x="1264" 
d="M631 -220h-214v995l-26 -1q-158 0 -256 106t-98 272q0 392 452 392h716l-128 -216h-61v-1548h-213v1548h-172v-1548z" />
    <glyph glyph-name="periodcentered" unicode="&#xb7;" horiz-adv-x="632" 
d="M177 771q0 58 41 99t98 41t98 -40.5t41 -98.5q-1 -58 -41 -98t-98 -41q-58 0 -98.5 40t-40.5 98z" />
    <glyph glyph-name="cedilla" unicode="&#xb8;" 
d="M787 -199l-239 -306l-146 73l199 309z" />
    <glyph glyph-name="onesuperior" unicode="&#xb9;" horiz-adv-x="896" 
d="M394 1401h-169l88 143h238v-926h-157v783z" />
    <glyph glyph-name="ordmasculine" unicode="&#xba;" horiz-adv-x="840" 
d="M419 1036q81 0 129 49.5t48 133.5q0 129 -68 156t-108 27q-78 0 -127 -49t-49 -133t47 -134t128 -50zM417 908.5q-139 0.5 -231 91.5q-92 92 -92 222t95 219t231 89t231 -90t95 -220q0 -132 -95 -222t-234 -89.5z" />
    <glyph glyph-name="guillemotright" unicode="&#xbb;" horiz-adv-x="1179" 
d="M852 495l-299 399l149 110l385 -510l-385 -493l-150 111zM424 495l-300 399l150 110l385 -510l-386 -493l-149 111z" />
    <glyph glyph-name="onequarter" unicode="&#xbc;" horiz-adv-x="1981" 
d="M1661 269v273l-194 -273h194zM1820 269h99v-139h-99v-130h-159v130h-470l629 880v-741zM1379 1571l109 -62l-884 -1534l-110 66zM348 1401h-169l88 143h238v-926h-157v783z" />
    <glyph glyph-name="onehalf" unicode="&#xbd;" horiz-adv-x="1981" 
d="M1867 145v-145h-657l337 396q100 119 132 169t32 102t-44 93t-109 41q-138 0 -157 -162h-157q36 304 310 304q133 1 222 -81t89 -202q0 -76 -42 -149t-162 -211l-136 -155h342zM1379 1571l109 -62l-884 -1534l-110 66zM348 1401h-169l88 143h238v-926h-157v783z" />
    <glyph glyph-name="threequarters" unicode="&#xbe;" horiz-adv-x="1981" 
d="M1660 269v273l-194 -273h194zM1819 269h99v-139h-99v-130h-159v130h-469l628 880v-741zM1378 1571l109 -62l-884 -1534l-110 66zM326 1041v132q96 0 126 18q52 31 52 95t-38 98.5t-99 34.5q-109 0 -131 -123h-157q23 138 93 201t198 63t208 -74t80 -192t-97 -188
q110 -68 110 -206t-88 -218q-89 -80 -224 -80q-275 0 -304 278h153q23 -137 159 -137q65 1 107 43t42 114t-44 106.5t-146 34.5z" />
    <glyph glyph-name="questiondown" unicode="&#xbf;" horiz-adv-x="1003" 
d="M641 1078q-1 -58 -41 -98t-98 -41q-58 0 -98.5 40.5t-40.5 98.5t41 99t98 41t98 -41t41 -99zM881 -8q0 -158 -107.5 -263t-269.5 -105t-271 106t-109 266t109 261q70 64 260 122q130 39 130 126q0 49 -34 83t-84 34q-110 0 -119 -154h-226q0 150 80 245q106 121 259 121
t251 -101t98 -231t-62 -202q-62 -70 -208 -124q-148 -54 -188 -86q-40 -34 -39 -102q0 -68 42 -108.5t111 -40.5t110 40.5t41 109.5q0 28 -12 84h233q5 -65 5 -81z" />
    <glyph glyph-name="Agrave" unicode="&#xc0;" horiz-adv-x="1517" 
d="M997 594l-229 525l-240 -525h469zM1092 375h-661l-172 -375h-251l764 1641l737 -1641h-255zM407 1959l198 139l320 -322l-111 -93z" />
    <glyph glyph-name="Aacute" unicode="&#xc1;" horiz-adv-x="1517" 
d="M997 594l-229 525l-240 -525h469zM1092 375h-661l-172 -375h-251l764 1641l737 -1641h-255zM1126 1959l-408 -276l-111 93l321 322z" />
    <glyph glyph-name="Acircumflex" unicode="&#xc2;" horiz-adv-x="1517" 
d="M997 594l-229 525l-240 -525h469zM1092 375h-661l-172 -375h-251l764 1641l737 -1641h-255zM421 1802l351 321l356 -321l-154 -119l-202 190l-199 -190z" />
    <glyph glyph-name="Atilde" unicode="&#xc3;" horiz-adv-x="1517" 
d="M997 594l-229 525l-240 -525h469zM1092 375h-661l-172 -375h-251l764 1641l737 -1641h-255zM931 1891q56 0 124 108l127 -106q-96 -192 -260 -192q-56 0 -183 56q-91 46 -141 46t-106 -104l-131 111l29 41q55 79 106 112t125 33q73 0 177 -52t133 -53z" />
    <glyph glyph-name="Adieresis" unicode="&#xc4;" horiz-adv-x="1517" 
d="M997 594l-229 525l-240 -525h469zM1092 375h-661l-172 -375h-251l764 1641l737 -1641h-255zM855 1844q0 58 42 100t101 42t101 -42t42 -102t-42 -101q-41 -42 -101 -42t-102 42q-41 45 -41 103zM406 1844q0 58 42 100t101 42t101 -42t41 -102q1 -60 -41 -101
q-42 -42 -102 -42t-101 42q-41 45 -41 103z" />
    <glyph glyph-name="Aring" unicode="&#xc5;" horiz-adv-x="1517" 
d="M997 594l-229 525l-240 -525h469zM1092 375h-661l-172 -375h-251l764 1641l737 -1641h-255zM675 1892q1 -32 29 -60t70 -28t70 28t29 71q-1 43 -29 71t-60 28t-49 -8t-31 -22t-22 -31q-8 -18 -7 -49zM556 1904q0 90 64 154t154 63q90 0 154 -64t63 -154q1 -90 -63 -154
t-154 -64t-155 64q-63 65 -63 155z" />
    <glyph glyph-name="AE" unicode="&#xc6;" horiz-adv-x="2145" 
d="M1010 588l-221 506l-238 -506h459zM1103 369h-656l-169 -369h-255l742 1544h683l97 -219h-615l163 -374h598l98 -219h-599l220 -513h617l94 -219h-856z" />
    <glyph glyph-name="Ccedilla" unicode="&#xc7;" horiz-adv-x="1435" 
d="M897 1354q-227 0 -391 -170t-163 -416q0 -244 164 -411t402 -167q123 0 209 40q92 38 208 136v-281q-200 -113 -420 -113q-331 0 -565 231q-233 233 -233 545t195 543q240 283 621 283q208 0 402 -113v-276q-202 169 -429 169zM1010 -211l-262 -308l-146 77l210 319z" />
    <glyph glyph-name="Egrave" unicode="&#xc8;" 
d="M1037 1325h-619v-371h601v-219h-601v-516h619v-219h-852v1544h852v-219zM307 1959l198 139l320 -322l-111 -93z" />
    <glyph glyph-name="Eacute" unicode="&#xc9;" 
d="M1037 1325h-619v-371h601v-219h-601v-516h619v-219h-852v1544h852v-219zM962 1959l-408 -276l-111 93l321 322z" />
    <glyph glyph-name="Ecircumflex" unicode="&#xca;" 
d="M1037 1325h-619v-371h601v-219h-601v-516h619v-219h-852v1544h852v-219zM260 1802l351 321l356 -321l-154 -119l-202 190l-199 -190z" />
    <glyph glyph-name="Edieresis" unicode="&#xcb;" 
d="M1037 1325h-619v-371h601v-219h-601v-516h619v-219h-852v1544h852v-219zM700 1844q0 58 42 100t101 42t101 -42t42 -102t-42 -101q-42 -42 -102 -42t-101 42q-41 45 -41 103zM251 1844q0 58 42 100t101 42q58 0 100 -42t42 -102t-42 -101q-42 -42 -100 -42q-60 0 -102 42
q-41 45 -41 103z" />
    <glyph glyph-name="Igrave" unicode="&#xcc;" horiz-adv-x="604" 
d="M418 1544v-1544h-233v1544h233zM-72 1959l189 139l305 -322l-111 -93z" />
    <glyph glyph-name="Iacute" unicode="&#xcd;" horiz-adv-x="604" 
d="M418 1544v-1544h-233v1544h233zM677 1959l-384 -276l-111 93l305 322z" />
    <glyph glyph-name="Icircumflex" unicode="&#xce;" horiz-adv-x="604" 
d="M418 1544v-1544h-233v1544h233zM-51 1802l351 321l356 -321l-154 -119l-202 190l-199 -190z" />
    <glyph glyph-name="Idieresis" unicode="&#xcf;" horiz-adv-x="604" 
d="M418 1544v-1544h-233v1544h233zM348 1842q0 60 42 102q44 42 102 42t100 -42t42 -102t-42 -101q-42 -42 -101 -42t-101 42q-42 41 -42 101zM112 1699q-60 0 -100 43q-40 42 -41 100q0 58 41 102q42 42 101 42t101 -42t42 -102t-42 -101q-42 -42 -102 -42z" />
    <glyph glyph-name="Eth" unicode="&#xd0;" horiz-adv-x="1487" 
d="M418 219h105q157 -1 261 33t188 110q172 156 172 410t-162 404t-459 149h-105v-422h332v-200h-332v-484zM185 0v703h-139v200h139v641h324q233 0 368 -46q145 -45 263 -153q239 -217 239 -573t-249 -576q-126 -110 -258 -153t-367 -43h-320z" />
    <glyph glyph-name="Ntilde" unicode="&#xd1;" horiz-adv-x="1729" 
d="M185 0v1649l1126 -1178v1073h233v-1638l-1126 1175v-1081h-233zM1019 1891q56 0 124 108l127 -106q-96 -192 -260 -192q-56 0 -183 56q-91 46 -141 46t-106 -104l-131 111l29 41q55 79 106 112t125 33q73 0 177 -52t133 -53z" />
    <glyph glyph-name="Ograve" unicode="&#xd2;" horiz-adv-x="1830" 
d="M343 770q-1 -250 171 -415t406 -165t400 169q167 169 167 415q-1 246 -165 412q-164 168 -406 168t-407 -167q-166 -167 -166 -417zM108 779q0 326 238 560t571 234t569 -236t236 -568q0 -333 -238 -565t-577 -232q-299 0 -537 207q-262 229 -262 600zM581 1959l198 139
l320 -322l-111 -93z" />
    <glyph glyph-name="Oacute" unicode="&#xd3;" horiz-adv-x="1830" 
d="M343 770q-1 -250 171 -415t406 -165t400 169q167 169 167 415q-1 246 -165 412q-164 168 -406 168t-407 -167q-166 -167 -166 -417zM108 779q0 326 238 560t571 234t569 -236t236 -568q0 -333 -238 -565t-577 -232q-299 0 -537 207q-262 229 -262 600zM1270 1959
l-408 -276l-111 93l321 322z" />
    <glyph glyph-name="Ocircumflex" unicode="&#xd4;" horiz-adv-x="1830" 
d="M343 770q-1 -250 171 -415t406 -165t400 169q167 169 167 415q-1 246 -165 412q-164 168 -406 168t-407 -167q-166 -167 -166 -417zM108 779q0 326 238 560t571 234t569 -236t236 -568q0 -333 -238 -565t-577 -232q-299 0 -537 207q-262 229 -262 600zM569 1802l351 321
l356 -321l-154 -119l-202 190l-199 -190z" />
    <glyph glyph-name="Otilde" unicode="&#xd5;" horiz-adv-x="1830" 
d="M343 770q-1 -250 171 -415t406 -165t400 169q167 169 167 415q-1 246 -165 412q-164 168 -406 168t-407 -167q-166 -167 -166 -417zM108 779q0 326 238 560t571 234t569 -236t236 -568q0 -333 -238 -565t-577 -232q-299 0 -537 207q-262 229 -262 600zM1050 1891
q56 0 124 108l127 -106q-96 -192 -260 -192q-56 0 -183 56q-91 46 -141 46t-106 -104l-131 111l29 41q55 79 106 112t125 33q72 0 176 -52t134 -53z" />
    <glyph glyph-name="Odieresis" unicode="&#xd6;" horiz-adv-x="1830" 
d="M343 770q-1 -250 171 -415t406 -165t400 169q167 169 167 415q-1 246 -165 412q-164 168 -406 168t-407 -167q-166 -167 -166 -417zM108 779q0 326 238 560t571 234t569 -236t236 -568q0 -333 -238 -565t-577 -232q-299 0 -537 207q-262 229 -262 600zM999 1844
q0 58 42 100t101 42t101 -42t42 -102t-42 -101q-41 -42 -101 -42t-102 42q-41 45 -41 103zM550 1844q0 58 42 100t101 42t101 -42t41 -102q1 -60 -41 -101q-42 -42 -102 -42t-101 42q-41 45 -41 103z" />
    <glyph glyph-name="multiply" unicode="&#xd7;" horiz-adv-x="1264" 
d="M175 1133l127 127l329 -330l330 330l127 -127l-330 -330l330 -330l-127 -126l-330 329l-329 -329l-127 126l330 330z" />
    <glyph glyph-name="Oslash" unicode="&#xd8;" horiz-adv-x="1828" 
d="M917 190q236 0 402 169t166 412q0 191 -113 355l-803 -819q169 -117 348 -117zM919 1354q-247 0 -412 -169q-164 -170 -164 -422q0 -165 97 -322l798 816q-145 97 -319 97zM1720 768q0 -328 -237 -562t-569 -234q-277 0 -511 177l-166 -165l-128 131l161 166
q-162 216 -162 485q0 346 242 576t570 231q260 0 481 -162l167 170l134 -133l-165 -169q183 -228 183 -511z" />
    <glyph glyph-name="Ugrave" unicode="&#xd9;" horiz-adv-x="1513" 
d="M418 1544v-930q0 -199 65 -291q97 -133 273 -133t274 133q65 89 65 291v930h233v-994q0 -244 -152 -402q-171 -176 -420 -176t-410 167t-161 411v994h233zM419 1959l198 139l320 -322l-111 -93z" />
    <glyph glyph-name="Uacute" unicode="&#xda;" horiz-adv-x="1513" 
d="M418 1544v-930q0 -199 65 -291q97 -133 273 -133t274 133q65 89 65 291v930h233v-994q0 -244 -152 -402q-171 -176 -420 -176t-410 167t-161 411v994h233zM1110 1959l-408 -276l-111 93l321 322z" />
    <glyph glyph-name="Ucircumflex" unicode="&#xdb;" horiz-adv-x="1513" 
d="M418 1544v-930q0 -199 65 -291q97 -133 273 -133t274 133q65 89 65 291v930h233v-994q0 -244 -152 -402q-171 -176 -420 -176t-410 167t-161 411v994h233zM403 1802l351 321l356 -321l-154 -119l-202 190l-199 -190z" />
    <glyph glyph-name="Udieresis" unicode="&#xdc;" horiz-adv-x="1513" 
d="M418 1544v-930q0 -199 65 -291q97 -133 273 -133t274 133q65 89 65 291v930h233v-994q0 -244 -152 -402q-171 -176 -420 -176t-410 167t-161 411v994h233zM836 1844q0 58 42 100t101 42t101 -42t42 -102t-42 -101q-42 -42 -102 -42t-101 42q-41 45 -41 103zM387 1844
q0 58 42 100t101 42q58 0 100 -42t42 -102t-42 -101q-42 -42 -100 -42q-60 0 -102 42q-41 45 -41 103z" />
    <glyph glyph-name="Yacute" unicode="&#xdd;" horiz-adv-x="1229" 
d="M730 0h-233v667l-504 877h268l353 -617l354 617h268l-506 -877v-667zM1019 1959l-408 -276l-111 93l321 322z" />
    <glyph glyph-name="Thorn" unicode="&#xde;" horiz-adv-x="1106" 
d="M418 627h87q321 0 321 247q0 239 -331 239h-77v-486zM418 411v-411h-233v1544h233v-216h31q203 0 293 -28q97 -25 176 -101q133 -130 133 -335t-142 -329t-383 -124h-108z" />
    <glyph glyph-name="germandbls" unicode="&#xdf;" horiz-adv-x="1274" 
d="M142 0v774h-80v200h80v247q0 239 120 367t330 128t338 -122q130 -122 130 -315t-165 -305q129 -57 206 -182t77 -275q0 -280 -245 -447q-152 -102 -368 -102v216q175 0 279 94t104 252t-125 245q-80 54 -258 72v207q134 0 203 62t69 168q-1 106 -65 168t-176 61
q-112 0 -168 -67.5t-56 -212.5l-4 -123v-1110h-226z" />
    <glyph glyph-name="agrave" unicode="&#xe0;" horiz-adv-x="1228" 
d="M326 486q0 -136 76 -224t197 -89t198 87t77 225t-77 225t-197 88t-197 -88t-77 -224zM860 974h226v-974h-226v102q-139 -130 -299 -130q-202 0 -334 146q-131 149 -131 370t131 367t315 146t318 -140v113zM293 1454l211 110l276 -364l-124 -76z" />
    <glyph glyph-name="aacute" unicode="&#xe1;" horiz-adv-x="1228" 
d="M326 486q0 -136 76 -224t197 -89t198 87t77 225t-77 225t-197 88t-197 -88t-77 -224zM860 974h226v-974h-226v102q-139 -130 -299 -130q-202 0 -334 146q-131 149 -131 370t131 367t315 146t318 -140v113zM959 1454l-364 -330l-123 76l275 364z" />
    <glyph glyph-name="acircumflex" unicode="&#xe2;" horiz-adv-x="1228" 
d="M326 486q0 -136 76 -224t197 -89t198 87t77 225t-77 225t-197 88t-197 -88t-77 -224zM860 974h226v-974h-226v102q-139 -130 -299 -130q-202 0 -334 146q-131 149 -131 370t131 367t315 146t318 -140v113zM276 1243l351 321l356 -321l-154 -119l-202 190l-199 -190z" />
    <glyph glyph-name="atilde" unicode="&#xe3;" horiz-adv-x="1228" 
d="M326 486q0 -136 76 -224t197 -89t198 87t77 225t-77 225t-197 88t-197 -88t-77 -224zM860 974h226v-974h-226v102q-139 -130 -299 -130q-202 0 -334 146q-131 149 -131 370t131 367t315 146t318 -140v113zM789 1332q56 0 124 108l127 -106q-96 -192 -260 -192
q-56 0 -183 56q-91 46 -141 46t-106 -104l-131 111l29 41q55 79 106 112t125 33q73 -1 177 -53t133 -52z" />
    <glyph glyph-name="adieresis" unicode="&#xe4;" horiz-adv-x="1228" 
d="M326 486q0 -136 76 -224t197 -89t198 87t77 225t-77 225t-197 88t-197 -88t-77 -224zM860 974h226v-974h-226v102q-139 -130 -299 -130q-202 0 -334 146q-131 149 -131 370t131 367t315 146t318 -140v113zM687 1283q1 59 43 101t101 41q59 1 101 -41t41 -102
q0 -60 -42 -101q-44 -41 -102 -41t-100 42t-42 101zM269 1284q0 58 42 100t101 41q59 1 101 -41t42 -102t-42 -101q-45 -41 -103 -41t-100 42q-41 44 -41 102z" />
    <glyph glyph-name="aring" unicode="&#xe5;" horiz-adv-x="1228" 
d="M326 486q0 -136 76 -224t197 -89t198 87t77 225t-77 225t-197 88t-197 -88t-77 -224zM860 974h226v-974h-226v102q-139 -130 -299 -130q-202 0 -334 146q-131 149 -131 370t131 367t315 146t318 -140v113zM522 1331q0 -31 28 -59t71 -29q43 1 71 29t28 70t-28 70t-60 29
q-32 0 -50 -8q-18 -7 -32 -21t-20 -32q-8 -18 -8 -49zM403 1342q0 90 64 154t154 64q89 0 153 -64t64 -154t-64 -154t-154 -64t-154 64q-63 64 -63 154z" />
    <glyph glyph-name="ae" unicode="&#xe6;" horiz-adv-x="1763" 
d="M314 299q0 -56 58 -94t143 -38q86 -1 146 39t60 96t-62.5 93.5t-146.5 37.5t-141 -39t-57 -95zM1206 798q-180 0 -230 -179h451q-41 179 -221 179zM1219 173q154 0 255 195l194 -108q-65 -123 -149 -184q-143 -105 -325 -105t-339 156q-122 -156 -359 -156
q-178 0 -289 90t-111 237q0 146 106 238t279 92q123 0 254 -66q1 132 -55 184t-186 53q-130 0 -262 -37v209q174 30 282 30q238 0 342 -137q131 137 342 137t339 -137t128 -363l-2 -64h-702q11 -118 81 -191t177 -73z" />
    <glyph glyph-name="ccedilla" unicode="&#xe7;" horiz-adv-x="976" 
d="M621 798q-127 0 -211 -89t-84 -225t82 -223q82 -88 208 -88q81 1 142 35t142 132v-297q-137 -71 -274 -71q-226 0 -378 146t-152 365q0 218 154 368t378 150q144 0 272 -69v-299q-78 93 -138 129t-141 36zM714 -199l-239 -306l-146 73l199 309z" />
    <glyph glyph-name="egrave" unicode="&#xe8;" horiz-adv-x="1133" 
d="M571 798q-126 0 -193 -105q-21 -33 -32 -75h452q-47 180 -227 180zM574 173q96 0 151 40q54 40 123 148l190 -106q-129 -220 -319 -267q-65 -16 -141 -16q-218 0 -350 140t-132 373q0 232 128 375q129 141 343 141q215 -1 339 -137t124 -377l-1 -53h-698q9 -120 78 -190
t165 -71zM246 1454l211 110l276 -364l-124 -76z" />
    <glyph glyph-name="eacute" unicode="&#xe9;" horiz-adv-x="1133" 
d="M571 798q-126 0 -193 -105q-21 -33 -32 -75h452q-47 180 -227 180zM574 173q96 0 151 40q54 40 123 148l190 -106q-129 -220 -319 -267q-65 -16 -141 -16q-218 0 -350 140t-132 373q0 232 128 375q129 141 343 141q215 -1 339 -137t124 -377l-1 -53h-698q9 -120 78 -190
t165 -71zM904 1454l-364 -330l-123 76l275 364z" />
    <glyph glyph-name="ecircumflex" unicode="&#xea;" horiz-adv-x="1133" 
d="M571 798q-126 0 -193 -105q-21 -33 -32 -75h452q-47 180 -227 180zM574 173q96 0 151 40q54 40 123 148l190 -106q-129 -220 -319 -267q-65 -16 -141 -16q-218 0 -350 140t-132 373q0 232 128 375q129 141 343 141q215 -1 339 -137t124 -377l-1 -53h-698q9 -120 78 -190
t165 -71zM222 1243l351 321l356 -321l-154 -119l-202 190l-199 -190z" />
    <glyph glyph-name="edieresis" unicode="&#xeb;" horiz-adv-x="1133" 
d="M571 798q-126 0 -193 -105q-21 -33 -32 -75h452q-47 180 -227 180zM574 173q96 0 151 40q54 40 123 148l190 -106q-129 -220 -319 -267q-65 -16 -141 -16q-218 0 -350 140t-132 373q0 232 128 375q129 141 343 141q215 -1 339 -137t124 -377l-1 -53h-698q9 -120 78 -190
t165 -71zM641 1283q1 59 43 101t101 41q59 1 101 -41t41 -102q0 -60 -42 -101q-44 -41 -102 -41t-100 42t-42 101zM223 1284q0 58 42 100t101 41q59 1 101 -41t42 -102t-42 -101q-45 -41 -103 -41t-100 42q-41 44 -41 102z" />
    <glyph glyph-name="igrave" unicode="&#xec;" horiz-adv-x="510" 
d="M367 974v-974h-225v974h225zM-96 1454l203 110l252 -364l-124 -76z" />
    <glyph glyph-name="iacute" unicode="&#xed;" horiz-adv-x="510" 
d="M367 974v-974h-225v974h225zM607 1454l-332 -330l-124 76l253 364z" />
    <glyph glyph-name="icircumflex" unicode="&#xee;" horiz-adv-x="510" 
d="M367 974v-974h-225v974h225zM-82 1243l335 321l340 -321l-154 -119l-186 190l-184 -190z" />
    <glyph glyph-name="idieresis" unicode="&#xef;" horiz-adv-x="510" 
d="M367 974v-974h-225v974h225zM294 1284q0 58 42 100t101 41q59 1 101 -41t42 -102t-42 -101q-44 -41 -102 -41t-101 42q-41 44 -41 102zM-68 1284q0 58 41 100t101 41q60 1 101 -41q42 -42 42 -102t-42 -101q-44 -41 -103 -41q-60 0 -100 43t-40 101z" />
    <glyph glyph-name="eth" unicode="&#xf0;" horiz-adv-x="1231" 
d="M326 484q0 -140 79 -226t211 -85q132 0 210.5 84.5t78.5 226.5q1 142 -79 228t-210 85q-130 0 -210 -86.5t-80 -226.5zM1135 503q0 -231 -146 -381t-369 -150t-374 147q-150 147 -150 365t150 366q152 149 372 149q82 0 157 -22q-123 220 -282 367l-240 -129l-73 131
l190 100q-27 16 -36 21l-153 78q-12 6 -54 21l92 140q135 -46 283 -137l45 -27l236 124l79 -130l-187 -100q216 -200 338 -452t122 -481z" />
    <glyph glyph-name="ntilde" unicode="&#xf1;" horiz-adv-x="1123" 
d="M142 974h226v-90q118 117 277 117t247 -99t89 -305v-597h-226v544q1 144 -39 200t-148 55q-108 1 -154 -73t-46 -256v-470h-226v974zM707 1332q56 0 124 108l127 -106q-96 -192 -260 -192q-56 0 -183 56q-91 46 -141 46t-106 -104l-131 111l29 41q55 79 106 112t125 33
q73 -1 177 -53t133 -52z" />
    <glyph glyph-name="ograve" unicode="&#xf2;" horiz-adv-x="1231" 
d="M326 485q0 -141 79 -227t211 -85q132 0 210 85q79 85 79 227q1 141 -79 227t-210 86t-210 -86t-80 -227zM612 -28q-220 0 -368 149t-148 367t151 365q151 148 369 148t368 -149q151 -149 151 -367t-151 -366q-152 -147 -372 -147zM295 1454l211 110l276 -364l-124 -76z
" />
    <glyph glyph-name="oacute" unicode="&#xf3;" horiz-adv-x="1231" 
d="M326 485q0 -141 79 -227t211 -85q132 0 210 85q79 85 79 227q1 141 -79 227t-210 86t-210 -86t-80 -227zM612 -28q-220 0 -368 149t-148 367t151 365q151 148 369 148t368 -149q151 -149 151 -367t-151 -366q-152 -147 -372 -147zM953 1454l-364 -330l-123 76l275 364z
" />
    <glyph glyph-name="ocircumflex" unicode="&#xf4;" horiz-adv-x="1231" 
d="M326 485q0 -141 79 -227t211 -85q132 0 210 85q79 85 79 227q1 141 -79 227t-210 86t-210 -86t-80 -227zM612 -28q-220 0 -368 149t-148 367t151 365q151 148 369 148t368 -149q151 -149 151 -367t-151 -366q-152 -147 -372 -147zM262 1243l351 321l356 -321l-154 -119
l-202 190l-199 -190z" />
    <glyph glyph-name="otilde" unicode="&#xf5;" horiz-adv-x="1231" 
d="M326 485q0 -141 79 -227t211 -85q132 0 210 85q79 85 79 227q1 141 -79 227t-210 86t-210 -86t-80 -227zM612 -28q-220 0 -368 149t-148 367t151 365q151 148 369 148t368 -149q151 -149 151 -367t-151 -366q-152 -147 -372 -147zM798 1332q56 0 124 108l127 -106
q-96 -192 -260 -192q-56 0 -183 56q-91 46 -141 46t-106 -104l-131 111l29 41q55 79 106 112t125 33q72 -1 176 -53t134 -52z" />
    <glyph glyph-name="odieresis" unicode="&#xf6;" horiz-adv-x="1231" 
d="M326 485q0 -141 79 -227t211 -85q132 0 210 85q79 85 79 227q1 141 -79 227t-210 86t-210 -86t-80 -227zM612 -28q-220 0 -368 149t-148 367t151 365q151 148 369 148t368 -149q151 -149 151 -367t-151 -366q-152 -147 -372 -147zM681 1283q1 59 43 101t101 41
q59 1 101 -41t41 -102q0 -60 -42 -101q-44 -41 -102 -41t-100 42t-42 101zM263 1284q0 58 42 100t101 41q59 1 101 -41t42 -102t-42 -101q-45 -41 -103 -41t-100 42q-41 44 -41 102z" />
    <glyph glyph-name="divide" unicode="&#xf7;" horiz-adv-x="1264" 
d="M632 1019q-54 -1 -92 39t-38 92t38 91q41 38 93 38t90 -38t38 -92t-37.5 -92t-91.5 -38zM632 327q-54 -1 -92 39t-38 92t38 91q41 38 93 38t90 -38t38 -92t-37.5 -92t-91.5 -38zM99 710v186h1065v-186h-1065z" />
    <glyph glyph-name="oslash" unicode="&#xf8;" horiz-adv-x="1231" 
d="M616 187q130 0 210 81q79 82 79 216q0 88 -39 166l-408 -423q73 -40 158 -40zM617 783q-133 0 -212 -82t-79 -218q0 -80 31 -145l401 414q-61 31 -141 31zM1136 484q0 -216 -150 -364t-350 -148q-201 0 -339 102l-148 -143l-103 104l147 146q-97 142 -97 308
q0 215 152 363t368 149q162 0 305 -95l154 152l102 -108l-150 -147q109 -145 109 -319z" />
    <glyph glyph-name="ugrave" unicode="&#xf9;" horiz-adv-x="1116" 
d="M367 974v-559q0 -242 191 -242t191 242v559h225v-564q0 -118 -28 -198t-98 -141q-114 -99 -290 -99t-289 99q-71 61 -99 133t-28 206v564h225zM222 1454l211 110l276 -364l-124 -76z" />
    <glyph glyph-name="uacute" unicode="&#xfa;" horiz-adv-x="1116" 
d="M367 974v-559q0 -242 191 -242t191 242v559h225v-564q0 -118 -28 -198t-98 -141q-114 -99 -290 -99t-289 99q-71 61 -99 133t-28 206v564h225zM911 1454l-364 -330l-123 76l275 364z" />
    <glyph glyph-name="ucircumflex" unicode="&#xfb;" horiz-adv-x="1116" 
d="M367 974v-559q0 -242 191 -242t191 242v559h225v-564q0 -118 -28 -198t-98 -141q-114 -99 -290 -99t-289 99q-71 61 -99 133t-28 206v564h225zM206 1243l351 321l356 -321l-154 -119l-202 190l-199 -190z" />
    <glyph glyph-name="udieresis" unicode="&#xfc;" horiz-adv-x="1116" 
d="M367 974v-559q0 -242 191 -242t191 242v559h225v-564q0 -118 -28 -198t-98 -141q-114 -99 -290 -99t-289 99q-71 61 -99 133t-28 206v564h225zM625 1283q1 59 43 101t101 41q59 1 101 -41t41 -102q0 -60 -42 -101q-44 -41 -102 -41t-100 42t-42 101zM207 1284
q0 58 42 100t101 41q59 1 101 -41t42 -102t-42 -101q-45 -41 -103 -41t-100 42q-41 44 -41 102z" />
    <glyph glyph-name="yacute" unicode="&#xfd;" horiz-adv-x="1113" 
d="M449 181l-438 793h261l298 -560l278 560h254l-776 -1504h-257zM940 1454l-364 -330l-123 76l275 364z" />
    <glyph glyph-name="thorn" unicode="&#xfe;" horiz-adv-x="1228" 
d="M354 488q0 -138 76 -227q76 -88 198 -88q120 0 197 88t77 224q0 137 -76 225t-198 88q-120 0 -197 -86t-77 -224zM367 -530h-225v2219h225v-821q133 133 318 133q185 1 316 -147t131 -370t-130 -366q-130 -146 -316 -146q-184 0 -319 137v-639z" />
    <glyph glyph-name="ydieresis" unicode="&#xff;" horiz-adv-x="1113" 
d="M449 181l-438 793h261l298 -560l278 560h254l-776 -1504h-257zM623 1283q1 59 43 101t101 41q59 1 101 -41t41 -102q0 -60 -42 -101q-44 -41 -102 -41t-100 42t-42 101zM205 1284q0 58 42 100t101 41q59 1 101 -41t42 -102t-42 -101q-45 -41 -103 -41t-100 42
q-41 44 -41 102z" />
    <glyph glyph-name="Amacron" unicode="&#x100;" horiz-adv-x="1517" 
d="M997 594l-229 525l-240 -525h469zM1092 375h-661l-172 -375h-251l764 1641l737 -1641h-255zM417 1907h701v-180h-701v180z" />
    <glyph glyph-name="amacron" unicode="&#x101;" horiz-adv-x="1228" 
d="M326 486q0 -136 76 -224t197 -89t198 87t77 225t-77 225t-197 88t-197 -88t-77 -224zM860 974h226v-974h-226v102q-139 -130 -299 -130q-202 0 -334 146q-131 149 -131 370t131 367t315 146t318 -140v113zM277 1343h701v-180h-701v180z" />
    <glyph glyph-name="Abreve" unicode="&#x102;" horiz-adv-x="1517" 
d="M997 594l-229 525l-240 -525h469zM1092 375h-661l-172 -375h-251l764 1641l737 -1641h-255zM766 1868q150 0 174 158h185q-30 -335 -363 -335q-154 1 -248 89t-106 246h185q23 -158 173 -158z" />
    <glyph glyph-name="abreve" unicode="&#x103;" horiz-adv-x="1228" 
d="M326 486q0 -136 76 -224t197 -89t198 87t77 225t-77 225t-197 88t-197 -88t-77 -224zM860 974h226v-974h-226v102q-139 -130 -299 -130q-202 0 -334 146q-131 149 -131 370t131 367t315 146t318 -140v113zM620 1127q-154 1 -248 89t-106 246h185q21 -157 173 -157
t174 157h185q-30 -335 -363 -335z" />
    <glyph glyph-name="Aogonek" unicode="&#x104;" horiz-adv-x="1517" 
d="M997 594l-229 525l-240 -525h469zM1258 -224q0 -82 101 -82q55 0 145 20l-23 -166q-79 -49 -181 -49q-102 -1 -174 59q-73 60 -73 152t46 152q46 66 157 138h-2l-162 375h-661l-172 -375h-251l764 1641l737 -1641h-57q-194 -129 -194 -224z" />
    <glyph glyph-name="aogonek" unicode="&#x105;" horiz-adv-x="1228" 
d="M326 486q0 -136 76 -224t197 -89t198 87t77 225t-77 225t-197 88t-197 -88t-77 -224zM860 974h226v-974h-29q-194 -129 -194 -224q0 -82 101 -82q55 0 145 20l-23 -166q-78 -49 -180 -49q-102 -1 -175 59t-73 152t46 152q46 66 157 138h-1v102q-139 -130 -299 -130
q-202 0 -334 146q-131 149 -131 370t131 367t315 146t318 -140v113z" />
    <glyph glyph-name="Cacute" unicode="&#x106;" horiz-adv-x="1435" 
d="M897 1354q-227 0 -391 -170t-163 -416q0 -244 164 -411t402 -167q123 0 209 40q92 38 208 136v-281q-200 -113 -420 -113q-331 0 -565 231q-233 233 -233 545t195 543q240 283 621 283q208 0 402 -113v-276q-202 169 -429 169zM1221 1959l-408 -276l-111 93l321 322z" />
    <glyph glyph-name="cacute" unicode="&#x107;" horiz-adv-x="976" 
d="M621 798q-127 0 -211 -89t-84 -225t82 -223q82 -88 208 -88q81 1 142 35t142 132v-297q-137 -71 -274 -71q-226 0 -378 146t-152 365q0 218 154 368t378 150q144 0 272 -69v-299q-78 93 -138 129t-141 36zM910 1454l-364 -330l-123 76l275 364z" />
    <glyph glyph-name="Ccircumflex" unicode="&#x108;" horiz-adv-x="1435" 
d="M897 1354q-227 0 -391 -170t-163 -416q0 -244 164 -411t402 -167q123 0 209 40q92 38 208 136v-281q-200 -113 -420 -113q-331 0 -565 231q-233 233 -233 545t195 543q240 283 621 283q208 0 402 -113v-276q-202 169 -429 169zM511 1807l351 321l356 -321l-154 -119
l-202 190l-199 -190z" />
    <glyph glyph-name="ccircumflex" unicode="&#x109;" horiz-adv-x="976" 
d="M621 798q-127 0 -211 -89t-84 -225t82 -223q82 -88 208 -88q81 1 142 35t142 132v-297q-137 -71 -274 -71q-226 0 -378 146t-152 365q0 218 154 368t378 150q144 0 272 -69v-299q-78 93 -138 129t-141 36zM226 1243l351 321l356 -321l-154 -119l-202 190l-199 -190z" />
    <glyph glyph-name="Cdotaccent" unicode="&#x10a;" horiz-adv-x="1435" 
d="M897 1354q-227 0 -391 -170t-163 -416q0 -244 164 -411t402 -167q123 0 209 40q92 38 208 136v-281q-200 -113 -420 -113q-331 0 -565 231q-233 233 -233 545t195 543q240 283 621 283q208 0 402 -113v-276q-202 169 -429 169zM748 1832q0 62 44 106q47 44 108 44
q62 0 106 -44t44 -106t-44 -106t-108 -44q-62 0 -106 44t-44 106z" />
    <glyph glyph-name="cdotaccent" unicode="&#x10b;" horiz-adv-x="976" 
d="M621 798q-127 0 -211 -89t-84 -225t82 -223q82 -88 208 -88q81 1 142 35t142 132v-297q-137 -71 -274 -71q-226 0 -378 146t-152 365q0 218 154 368t378 150q144 0 272 -69v-299q-78 93 -138 129t-141 36zM428 1290q0 62 44 106q47 44 108 44q62 0 106 -44t44 -106
t-44 -106t-108 -44q-62 0 -106 44t-44 106z" />
    <glyph glyph-name="Ccaron" unicode="&#x10c;" horiz-adv-x="1435" 
d="M897 1354q-227 0 -391 -170t-163 -416q0 -244 164 -411t402 -167q123 0 209 40q92 38 208 136v-281q-200 -113 -420 -113q-331 0 -565 231q-233 233 -233 545t195 543q240 283 621 283q208 0 402 -113v-276q-202 169 -429 169zM1240 2004l-351 -321l-356 321l154 119
l201 -190l200 190z" />
    <glyph glyph-name="ccaron" unicode="&#x10d;" horiz-adv-x="976" 
d="M621 798q-127 0 -211 -89t-84 -225t82 -223q82 -88 208 -88q81 1 142 35t142 132v-297q-137 -71 -274 -71q-226 0 -378 146t-152 365q0 218 154 368t378 150q144 0 272 -69v-299q-78 93 -138 129t-141 36zM919 1445l-351 -321l-356 321l154 119l201 -190l200 190z" />
    <glyph glyph-name="Dcaron" unicode="&#x10e;" horiz-adv-x="1487" 
d="M418 219h105q157 0 261 34t188 110q172 157 172 410t-162 403t-459 149h-105v-1106zM185 0v1544h324q233 0 368 -46q145 -45 263 -153q239 -217 239 -573t-249 -576q-126 -110 -258 -153t-367 -43h-320zM963 2004l-351 -321l-356 321l154 119l201 -190l200 190z" />
    <glyph glyph-name="dcaron" unicode="&#x10f;" horiz-adv-x="1450" 
d="M326 486q0 -136 76 -224t197 -89t198 87t77 225t-77 225t-197 88t-197 -88t-77 -224zM860 1689h226v-1689h-226v102q-133 -130 -317 -130t-316 146q-131 150 -131 370t130 366t315 147q184 0 319 -140v828zM1192 1286v250h225v-349l-75 -151l-125 53l61 151l-5 46h-81z
" />
    <glyph glyph-name="Dcroat" unicode="&#x110;" horiz-adv-x="1487" 
d="M418 219h105q157 -1 261 33t188 110q172 156 172 410t-162 404t-459 149h-105v-422h332v-200h-332v-484zM185 0v703h-139v200h139v641h324q233 0 368 -46q145 -45 263 -153q239 -217 239 -573t-249 -576q-126 -110 -258 -153t-367 -43h-320z" />
    <glyph glyph-name="dcroat" unicode="&#x111;" horiz-adv-x="1228" 
d="M1086 1689v-299h174v-200h-174v-1190h-226v102q-133 -130 -317 -130t-316 146q-131 150 -131 370t130 366t315 147q184 0 319 -140v329h-240v200h240v299h226zM326 486q0 -136 76 -224t197 -89t198 87t77 225t-77 225t-197 88t-197 -88t-77 -224z" />
    <glyph glyph-name="Emacron" unicode="&#x112;" 
d="M1037 1325h-619v-371h601v-219h-601v-516h619v-219h-852v1544h852v-219zM241 1907h701v-180h-701v180z" />
    <glyph glyph-name="emacron" unicode="&#x113;" horiz-adv-x="1133" 
d="M571 798q-126 0 -193 -105q-21 -33 -32 -75h452q-47 180 -227 180zM574 173q96 0 151 40q54 40 123 148l190 -106q-129 -220 -319 -267q-65 -16 -141 -16q-218 0 -350 140t-132 373q0 232 128 375q129 141 343 141q215 -1 339 -137t124 -377l-1 -53h-698q9 -120 78 -190
t165 -71zM220 1343h701v-180h-701v180z" />
    <glyph glyph-name="Ebreve" unicode="&#x114;" 
d="M1037 1325h-619v-371h601v-219h-601v-516h619v-219h-852v1544h852v-219zM603 1690q-153 0 -247 88t-107 247h185q22 -157 174 -157t173 157h185q-30 -335 -363 -335z" />
    <glyph glyph-name="ebreve" unicode="&#x115;" horiz-adv-x="1133" 
d="M571 798q-126 0 -193 -105q-21 -33 -32 -75h452q-47 180 -227 180zM574 173q96 0 151 40q54 40 123 148l190 -106q-129 -220 -319 -267q-65 -16 -141 -16q-218 0 -350 140t-132 373q0 232 128 375q129 141 343 141q215 -1 339 -137t124 -377l-1 -53h-698q9 -120 78 -190
t165 -71zM575 1127q-153 1 -247 89t-107 246h185q22 -157 174 -157t173 157h185q-30 -335 -363 -335z" />
    <glyph glyph-name="Edotaccent" unicode="&#x116;" 
d="M1037 1325h-619v-371h601v-219h-601v-516h619v-219h-852v1544h852v-219zM461 1851q0 61 44 105q47 44 108 44t105 -44t45 -107q-1 -63 -45 -107t-106 -43q-62 -1 -107 45q-44 46 -44 107z" />
    <glyph glyph-name="edotaccent" unicode="&#x117;" horiz-adv-x="1133" 
d="M571 798q-126 0 -193 -105q-21 -33 -32 -75h452q-47 180 -227 180zM574 173q96 0 151 40q54 40 123 148l190 -106q-129 -220 -319 -267q-65 -16 -141 -16q-218 0 -350 140t-132 373q0 232 128 375q129 141 343 141q215 -1 339 -137t124 -377l-1 -53h-698q9 -120 78 -190
t165 -71zM424 1290q0 62 44 106q47 44 108 44q62 0 106 -44t44 -106t-44 -106t-108 -44q-62 0 -106 44t-44 106z" />
    <glyph glyph-name="Eogonek" unicode="&#x118;" 
d="M1037 1325h-619v-371h601v-219h-601v-516h619v-219h1q-194 -129 -194 -224q0 -82 101 -82q55 0 145 20l-23 -166q-79 -49 -181 -49q-102 -1 -174 59q-73 60 -73 152t46 152q46 66 157 138h-657v1544h852v-219z" />
    <glyph glyph-name="eogonek" unicode="&#x119;" horiz-adv-x="1133" 
d="M571 798q-126 0 -193 -105q-21 -33 -32 -75h452q-47 180 -227 180zM574 173q96 0 151 40q54 40 123 148l190 -106q-118 -201 -283 -257q-192 -128 -192 -222q0 -82 101 -82q55 0 145 20l-23 -166q-78 -49 -180 -49q-102 -1 -175 59t-73 152t46 152q38 54 119 112
q-180 16 -304 148q-123 131 -123 363t128 375q129 141 343 141q215 -1 339 -137t124 -377l-1 -53h-698q9 -120 78 -190t165 -71z" />
    <glyph glyph-name="Ecaron" unicode="&#x11a;" 
d="M1037 1325h-619v-371h601v-219h-601v-516h619v-219h-852v1544h852v-219zM954 2004l-351 -321l-356 321l154 119l201 -190l200 190z" />
    <glyph glyph-name="ecaron" unicode="&#x11b;" horiz-adv-x="1133" 
d="M571 798q-126 0 -193 -105q-21 -33 -32 -75h452q-47 180 -227 180zM574 173q96 0 151 40q54 40 123 148l190 -106q-129 -220 -319 -267q-65 -16 -141 -16q-218 0 -350 140t-132 373q0 232 128 375q129 141 343 141q215 -1 339 -137t124 -377l-1 -53h-698q9 -120 78 -190
t165 -71zM933 1445l-351 -321l-356 321l154 119l201 -190l200 190z" />
    <glyph glyph-name="Gcircumflex" unicode="&#x11c;" horiz-adv-x="1725" 
d="M979 804h638v-51q-1 -174 -41 -303t-135 -237q-215 -242 -543 -242q-328 1 -559 235t-231 566t235 568q235 234 572 234q181 0 335 -74t298 -240l-166 -159q-190 253 -463 253q-245 0 -411 -168t-166 -421q0 -254 179 -415t366 -161q187 1 324 117t153 279h-385v219z
M559 1806l351 321l356 -321l-154 -119l-202 190l-199 -190z" />
    <glyph glyph-name="gcircumflex" unicode="&#x11d;" horiz-adv-x="1226" 
d="M595 173q129 -1 201 89t72 228t-76 223q-76 86 -201 86t-195 -90t-70 -224t70 -223t199 -89zM1084 23q0 -129 -20 -227t-91 -176q-132 -152 -363 -152q-195 0 -323 106t-148 298h226q13 -72 43 -111q70 -91 204 -91q247 0 247 303v136q-134 -137 -321 -137
q-186 0 -314 145t-128 361t124 370t320 153q197 0 319 -137v110h225v-951zM226 1243l351 321l356 -321l-154 -119l-202 190l-199 -190z" />
    <glyph glyph-name="Gbreve" unicode="&#x11e;" horiz-adv-x="1725" 
d="M979 804h638v-51q-1 -174 -41 -303t-135 -237q-215 -242 -543 -242q-328 1 -559 235t-231 566t235 568q235 234 572 234q181 0 335 -74t298 -240l-166 -159q-190 253 -463 253q-245 0 -411 -168t-166 -421q0 -254 179 -415t366 -161q187 1 324 117t153 279h-385v219z
M894 1868q150 0 173 158h185q-30 -335 -363 -335q-153 1 -247 89t-107 246h185q24 -158 174 -158z" />
    <glyph glyph-name="gbreve" unicode="&#x11f;" horiz-adv-x="1226" 
d="M595 173q129 -1 201 89t72 228t-76 223q-76 86 -201 86t-195 -90t-70 -224t70 -223t199 -89zM1084 23q0 -129 -20 -227t-91 -176q-132 -152 -363 -152q-195 0 -323 106t-148 298h226q13 -72 43 -111q70 -91 204 -91q247 0 247 303v136q-134 -137 -321 -137
q-186 0 -314 145t-128 361t124 370t320 153q197 0 319 -137v110h225v-951zM602 1305q152 0 174 157h185q-30 -335 -363 -335q-154 1 -248 89t-106 246h185q21 -157 173 -157z" />
    <glyph glyph-name="Gdotaccent" unicode="&#x120;" horiz-adv-x="1725" 
d="M979 804h638v-51q-1 -174 -41 -303t-135 -237q-215 -242 -543 -242q-328 1 -559 235t-231 566t235 568q235 234 572 234q181 0 335 -74t298 -240l-166 -159q-190 253 -463 253q-245 0 -411 -168t-166 -421q0 -254 179 -415t366 -161q187 1 324 117t153 279h-385v219z
M754 1839q0 62 44 106q47 44 108 44q62 0 106 -44q44 -45 44 -107t-44 -106t-108 -43q-62 0 -106 44t-44 106z" />
    <glyph glyph-name="gdotaccent" unicode="&#x121;" horiz-adv-x="1226" 
d="M595 173q129 -1 201 89t72 228t-76 223q-76 86 -201 86t-195 -90t-70 -224t70 -223t199 -89zM1084 23q0 -129 -20 -227t-91 -176q-132 -152 -363 -152q-195 0 -323 106t-148 298h226q13 -72 43 -111q70 -91 204 -91q247 0 247 303v136q-134 -137 -321 -137
q-186 0 -314 145t-128 361t124 370t320 153q197 0 319 -137v110h225v-951zM428 1290q0 62 44 106q47 44 108 44q62 0 106 -44t44 -106t-44 -106t-108 -44q-62 0 -106 44t-44 106z" />
    <glyph glyph-name="Gcedilla" unicode="&#x122;" horiz-adv-x="1725" 
d="M979 804h638v-51q-1 -174 -41 -303t-135 -237q-215 -242 -543 -242q-328 1 -559 235t-231 566t235 568q235 234 572 234q181 0 335 -74t298 -240l-166 -159q-190 253 -463 253q-245 0 -411 -168t-166 -421q0 -254 179 -415t366 -161q187 1 324 117t153 279h-385v219z
M799 -341v250h225v-349l-75 -151l-125 53l61 151l-5 46h-81z" />
    <glyph glyph-name="gcedilla" unicode="&#x123;" horiz-adv-x="1226" 
d="M595 173q129 -1 201 89t72 228t-76 223q-76 86 -201 86t-195 -90t-70 -224t70 -223t199 -89zM1084 23q0 -129 -20 -227t-91 -176q-132 -152 -363 -152q-195 0 -323 106t-148 298h226q13 -72 43 -111q70 -91 204 -91q247 0 247 303v136q-134 -137 -321 -137
q-186 0 -314 145t-128 361t124 370t320 153q197 0 319 -137v110h225v-951zM720 1373v-250h-225v349l75 151l125 -53l-61 -151l5 -46h81z" />
    <glyph glyph-name="Hcircumflex" unicode="&#x124;" horiz-adv-x="1502" 
d="M418 940h666v604h233v-1544h-233v721h-666v-721h-233v1544h233v-604zM414 1799l351 321l356 -321l-154 -119l-202 190l-199 -190z" />
    <glyph glyph-name="hcircumflex" unicode="&#x125;" horiz-adv-x="1123" 
d="M142 1689h225v-796q120 108 275 108t254 -107q84 -93 84 -297v-597h-225v576q1 118 -41 170t-147 52t-153 -73q-47 -74 -47 -254v-471h-225v1689zM-99 1799l351 321l356 -321l-154 -119l-202 190l-199 -190z" />
    <glyph glyph-name="Hbar" unicode="&#x126;" horiz-adv-x="1738" 
d="M521 940h666v187h-666v-187zM1420 1127v-1127h-233v721h-666v-721h-233v1127h-288v210h288v207h233v-207h666v207h233v-207h317v-210h-317z" />
    <glyph glyph-name="hbar" unicode="&#x127;" horiz-adv-x="1123" 
d="M142 1689h225v-353h114v-196h-114v-247q120 108 275 108t254 -107q84 -93 84 -297v-597h-225v576q1 118 -41 170t-147 52t-153 -73q-47 -74 -47 -254v-471h-225v1140h-107v196h107v353z" />
    <glyph glyph-name="Itilde" unicode="&#x128;" horiz-adv-x="827" 
d="M573 1874q56 0 124 108l127 -106q-96 -192 -260 -192q-56 0 -183 56q-91 46 -141 46t-106 -104l-131 111l29 41q55 79 106 112t125 33q73 -1 177 -53t133 -52zM520 1541v-1544h-233v1544h233z" />
    <glyph glyph-name="itilde" unicode="&#x129;" horiz-adv-x="813" 
d="M566 1312q56 0 124 108l127 -106q-96 -192 -260 -192q-56 0 -183 56q-91 46 -141 46t-106 -104l-131 111l29 41q55 79 106 112t125 33q72 -1 176 -53t134 -52zM520 974v-974h-225v974h225z" />
    <glyph glyph-name="Imacron" unicode="&#x12a;" horiz-adv-x="604" 
d="M418 1544v-1544h-233v1544h233zM3 1907h603v-180h-603v180z" />
    <glyph glyph-name="imacron" unicode="&#x12b;" horiz-adv-x="510" 
d="M367 974v-974h-225v974h225zM0 1343h510v-180h-510v180z" />
    <glyph glyph-name="Ibreve" unicode="&#x12c;" horiz-adv-x="721" 
d="M353 1683q-153 1 -247 89t-107 246h185q22 -157 174 -157t173 157h185q-30 -335 -363 -335zM481 1544v-1544h-233v1544h233z" />
    <glyph glyph-name="ibreve" unicode="&#x12d;" horiz-adv-x="716" 
d="M354 1121q-154 1 -248 89t-106 246h185q21 -157 173 -157t174 157h185q-30 -335 -363 -335zM458 981v-974h-225v974h225z" />
    <glyph glyph-name="Iogonek" unicode="&#x12e;" horiz-adv-x="604" 
d="M418 1544v-1544h-35q-194 -129 -194 -224q0 -82 101 -82q55 0 145 20l-23 -166q-78 -49 -180 -49q-102 -1 -175 59t-73 152t46 152q46 66 157 138h-2v1544h233z" />
    <glyph glyph-name="iogonek" unicode="&#x12f;" horiz-adv-x="510" 
d="M108 1378q0 60 43 103t103 43t104 -42q43 -42 43 -104q-1 -61 -43 -104t-103 -43t-104 43q-43 44 -43 104zM367 974v-974h-26q-194 -129 -194 -224q0 -82 101 -82q55 0 145 20l-23 -166q-78 -49 -180 -49q-102 -1 -175 59t-73 152t46 152q46 66 157 138h-3v974h225z" />
    <glyph glyph-name="Idotaccent" unicode="&#x130;" horiz-adv-x="604" 
d="M418 1544v-1544h-233v1544h233zM151 1851q0 61 44 105q47 44 108 44t105 -44t45 -107q-1 -63 -45 -107t-106 -43q-62 -1 -107 45q-44 46 -44 107z" />
    <glyph glyph-name="dotlessi" unicode="&#x131;" horiz-adv-x="510" 
d="M367 974v-974h-225v974h225z" />
    <glyph glyph-name="IJ" unicode="&#x132;" horiz-adv-x="1480" 
d="M418 1544v-1544h-233v1544h233zM1301 1551v-999q0 -179 -25 -273t-85 -163q-117 -137 -310 -137q-146 0 -273 76l114 199q85 -57 159 -57q104 0 145 79t41 276v999h234z" />
    <glyph glyph-name="ij" unicode="&#x133;" horiz-adv-x="1056" 
d="M108 1378q0 60 43 103t103 43t104 -42q43 -42 43 -104q-1 -61 -43 -104t-103 -43t-104 43q-43 44 -43 104zM367 974v-974h-225v974h225zM595 1378q0 60 43 103q44 43 104 43t103 -42t43 -104q0 -61 -42 -104t-104 -43q-61 0 -104 43q-43 44 -43 104zM854 974v-1504h-225
v1504h225z" />
    <glyph glyph-name="Jcircumflex" unicode="&#x134;" horiz-adv-x="931" 
d="M655 1544v-999q0 -179 -25 -273t-85 -163q-117 -137 -310 -137q-146 0 -273 76l114 199q85 -57 159 -57q104 0 145 79t41 276v999h234zM220 1799l351 321l356 -321l-154 -119l-202 190l-199 -190z" />
    <glyph glyph-name="jcircumflex" unicode="&#x135;" horiz-adv-x="702" 
d="M-3 1249l351 321l356 -321l-154 -119l-202 190l-199 -190zM453 845v-1199h-226v1199h226z" />
    <glyph glyph-name="Kcedilla" unicode="&#x136;" horiz-adv-x="1357" 
d="M418 0h-233v1544h233v-616l601 616h311l-698 -699l702 -845h-312l-556 687l-48 -48v-639zM532 -341v250h225v-349l-75 -151l-125 53l61 151l-5 46h-81z" />
    <glyph glyph-name="kcedilla" unicode="&#x137;" horiz-adv-x="1020" 
d="M367 1689v-1030l317 315h302l-423 -409l454 -565h-292l-322 411l-36 -36v-375h-225v1689h225zM392 -341v250h225v-349l-75 -151l-125 53l61 151l-5 46h-81z" />
    <glyph glyph-name="kgreenlandic" unicode="&#x138;" horiz-adv-x="1020" 
d="M367 973v-314l317 315h302l-423 -409l454 -565h-292l-322 411l-36 -36v-375h-225v973h225z" />
    <glyph glyph-name="Lacute" unicode="&#x139;" horiz-adv-x="908" 
d="M418 1544v-1325h454v-219h-687v1544h233zM759 1959l-408 -276l-111 93l321 322z" />
    <glyph glyph-name="lacute" unicode="&#x13a;" horiz-adv-x="510" 
d="M367 1689v-1689h-225v1689h225zM568 2025l-408 -276l-111 93l321 322z" />
    <glyph glyph-name="Lcedilla" unicode="&#x13b;" horiz-adv-x="908" 
d="M418 1544v-1325h454v-219h-687v1544h233zM406 -341v250h225v-349l-75 -151l-125 53l61 151l-5 46h-81z" />
    <glyph glyph-name="lcedilla" unicode="&#x13c;" horiz-adv-x="510" 
d="M367 1689v-1689h-225v1689h225zM145 -341v250h225v-349l-75 -151l-125 53l61 151l-5 46h-81z" />
    <glyph glyph-name="Lcaron" unicode="&#x13d;" horiz-adv-x="908" 
d="M418 1544v-1325h454v-219h-687v1544h233zM579 1286v250h225v-349l-75 -151l-125 53l61 151l-5 46h-81z" />
    <glyph glyph-name="lcaron" unicode="&#x13e;" horiz-adv-x="731" 
d="M367 1689v-1689h-225v1689h225zM473 1286v250h225v-349l-75 -151l-125 53l61 151l-5 46h-81z" />
    <glyph glyph-name="Ldotaccent" unicode="&#x13f;" horiz-adv-x="908" 
d="M418 1544v-1325h454v-219h-687v1544h233zM609 1290q0 62 44 106q47 44 108 44t105 -44t45 -106q-1 -62 -45 -106t-106 -44t-107 44q-44 44 -44 106z" />
    <glyph glyph-name="ldotaccent" unicode="&#x140;" horiz-adv-x="959" 
d="M367 1689v-1689h-225v1689h225zM532 1277q0 62 44 106q47 44 108 44q62 0 106 -44q44 -45 44 -107t-44 -106t-108 -43q-62 0 -106 44t-44 106z" />
    <glyph glyph-name="Lslash" unicode="&#x141;" horiz-adv-x="908" 
d="M419 219h454v-219h-687v600l-147 -98v232l147 98v712h233v-588l298 197v-231l-298 -197v-506z" />
    <glyph glyph-name="lslash" unicode="&#x142;" horiz-adv-x="611" 
d="M418 0h-225v643l-147 -103v224l147 103v822h225v-710l147 102v-224l-147 -102v-755z" />
    <glyph glyph-name="Nacute" unicode="&#x143;" horiz-adv-x="1729" 
d="M185 0v1649l1126 -1178v1073h233v-1638l-1126 1175v-1081h-233zM1187 1959l-408 -276l-111 93l321 322z" />
    <glyph glyph-name="nacute" unicode="&#x144;" horiz-adv-x="1123" 
d="M142 974h226v-90q118 117 277 117t247 -99t89 -305v-597h-226v544q1 144 -39 200t-148 55q-108 1 -154 -73t-46 -256v-470h-226v974zM896 1454l-364 -330l-123 76l275 364z" />
    <glyph glyph-name="Ncedilla" unicode="&#x145;" horiz-adv-x="1729" 
d="M185 0v1649l1126 -1178v1073h233v-1638l-1126 1175v-1081h-233zM790 -341v250h225v-349l-75 -151l-125 53l61 151l-5 46h-81z" />
    <glyph glyph-name="ncedilla" unicode="&#x146;" horiz-adv-x="1123" 
d="M142 974h226v-90q118 117 277 117t247 -99t89 -305v-597h-226v544q1 144 -39 200t-148 55q-108 1 -154 -73t-46 -256v-470h-226v974zM464 -341v250h225v-349l-75 -151l-125 53l61 151l-5 46h-81z" />
    <glyph glyph-name="Ncaron" unicode="&#x147;" horiz-adv-x="1729" 
d="M185 0v1649l1126 -1178v1073h233v-1638l-1126 1175v-1081h-233zM1224 2004l-351 -321l-356 321l154 119l201 -190l200 190z" />
    <glyph glyph-name="ncaron" unicode="&#x148;" horiz-adv-x="1123" 
d="M142 974h226v-90q118 117 277 117t247 -99t89 -305v-597h-226v544q1 144 -39 200t-148 55q-108 1 -154 -73t-46 -256v-470h-226v974zM933 1445l-351 -321l-356 321l154 119l201 -190l200 190z" />
    <glyph glyph-name="quoterightn" unicode="&#x149;" horiz-adv-x="1592" 
d="M533 974h226v-90q118 117 277 117q160 0 248 -99t88 -305v-597h-226v544q0 144 -40 200t-146 55q-108 1 -154 -73t-47 -256v-470h-226v974zM353 1625l200 -78l-285 -572l-152 63z" />
    <glyph glyph-name="Omacron" unicode="&#x14c;" horiz-adv-x="1830" 
d="M343 770q-1 -250 171 -415t406 -165t400 169q167 169 167 415q-1 246 -165 412q-164 168 -406 168t-407 -167q-166 -167 -166 -417zM108 779q0 326 238 560t571 234t569 -236t236 -568q0 -333 -238 -565t-577 -232q-299 0 -537 207q-262 229 -262 600zM571 1907h701v-180
h-701v180z" />
    <glyph glyph-name="omacron" unicode="&#x14d;" horiz-adv-x="1231" 
d="M326 485q0 -141 79 -227t211 -85q132 0 210 85q79 85 79 227q1 141 -79 227t-210 86t-210 -86t-80 -227zM612 -28q-220 0 -368 149t-148 367t151 365q151 148 369 148t368 -149q151 -149 151 -367t-151 -366q-152 -147 -372 -147zM268 1343h701v-180h-701v180z" />
    <glyph glyph-name="Obreve" unicode="&#x14e;" horiz-adv-x="1830" 
d="M343 770q-1 -250 171 -415t406 -165t400 169q167 169 167 415q-1 246 -165 412q-164 168 -406 168t-407 -167q-166 -167 -166 -417zM108 779q0 326 238 560t571 234t569 -236t236 -568q0 -333 -238 -565t-577 -232q-299 0 -537 207q-262 229 -262 600zM914 1861
q152 0 173 157h185q-30 -335 -363 -335q-153 1 -247 89t-107 246h185q22 -157 174 -157z" />
    <glyph glyph-name="obreve" unicode="&#x14f;" horiz-adv-x="1231" 
d="M326 485q0 -141 79 -227t211 -85q132 0 210 85q79 85 79 227q1 141 -79 227t-210 86t-210 -86t-80 -227zM612 -28q-220 0 -368 149t-148 367t151 365q151 148 369 148t368 -149q151 -149 151 -367t-151 -366q-152 -147 -372 -147zM603 1127q-153 1 -247 89t-107 246h185
q22 -157 174 -157t173 157h185q-30 -335 -363 -335z" />
    <glyph glyph-name="Ohungarumlaut" unicode="&#x150;" horiz-adv-x="1830" 
d="M343 770q-1 -250 171 -415t406 -165t400 169q167 169 167 415q-1 246 -165 412q-164 168 -406 168t-407 -167q-166 -167 -166 -417zM108 779q0 326 238 560t571 234t569 -236t236 -568q0 -333 -238 -565t-577 -232q-299 0 -537 207q-262 229 -262 600zM1078 1959
l-408 -276l-111 93l321 322zM1496 1959l-408 -276l-111 93l321 322z" />
    <glyph glyph-name="ohungarumlaut" unicode="&#x151;" horiz-adv-x="1231" 
d="M326 485q0 -141 79 -227t211 -85q132 0 210 85q79 85 79 227q1 141 -79 227t-210 86t-210 -86t-80 -227zM612 -28q-220 0 -368 149t-148 367t151 365q151 148 369 148t368 -149q151 -149 151 -367t-151 -366q-152 -147 -372 -147zM1128 1454l-334 -330l-99 76l243 364z
M711 1454l-334 -330l-99 76l244 364z" />
    <glyph glyph-name="OE" unicode="&#x152;" horiz-adv-x="2424" 
d="M903 191q236 1 404 169t168 408q1 240 -167 412q-168 173 -400 173q-232 1 -398 -169t-167 -410q0 -240 162 -411.5t398 -171.5zM2304 1325h-598v-372h581v-220h-581v-514h598v-219h-831v213q-137 -133 -263 -187t-287 -54q-339 0 -577 232t-238 549t203 553
q231 268 602 268q174 0 294 -58q130 -58 266 -193v221h831v-219z" />
    <glyph glyph-name="oe" unicode="&#x153;" horiz-adv-x="1952" 
d="M613 798q-131 0 -209 -84t-77 -227q-1 -144 75 -229t210 -85t210.5 83t76.5 231q0 224 -109.5 267.5t-176.5 43.5zM1394 798q-184 0 -233 -180h457q-40 180 -224 180zM1408 173q159 0 258 192l192 -111q-171 -283 -466 -283q-104 0 -216 50q-103 51 -164 136
q-158 -185 -402 -185q-212 0 -363 148t-151 366q0 216 152 366t386 149q234 0 378 -189q132 189 360 189t356 -137t128 -372l-2 -58h-711q7 -114 81 -188t184 -73z" />
    <glyph glyph-name="Racute" unicode="&#x154;" horiz-adv-x="1233" 
d="M418 835h74q331 0 331 253q0 237 -322 237h-83v-490zM418 632v-632h-233v1544h273q306 0 449 -122t143 -331q0 -164 -94 -282t-248 -151l478 -658h-285l-441 632h-42zM878 1959l-408 -276l-111 93l321 322z" />
    <glyph glyph-name="racute" unicode="&#x155;" horiz-adv-x="766" 
d="M142 974h225v-87q63 65 111 89t126 25q78 0 175 -58l-103 -206q-64 46 -125 46q-184 0 -184 -278v-505h-225v974zM774 1454l-364 -330l-123 76l275 364z" />
    <glyph glyph-name="Rcedilla" unicode="&#x156;" horiz-adv-x="1233" 
d="M418 835h74q331 0 331 253q0 237 -322 237h-83v-490zM418 632v-632h-233v1544h273q306 0 449 -122t143 -331q0 -164 -94 -282t-248 -151l478 -658h-285l-441 632h-42zM498 -341v250h225v-349l-75 -151l-125 53l61 151l-5 46h-81z" />
    <glyph glyph-name="rcedilla" unicode="&#x157;" horiz-adv-x="766" 
d="M142 974h225v-87q63 65 111 89t126 25q78 0 175 -58l-103 -206q-64 46 -125 46q-184 0 -184 -278v-505h-225v974zM262 -341v250h225v-349l-75 -151l-125 53l61 151l-5 46h-81z" />
    <glyph glyph-name="Rcaron" unicode="&#x158;" horiz-adv-x="1233" 
d="M418 835h74q331 0 331 253q0 237 -322 237h-83v-490zM418 632v-632h-233v1544h273q306 0 449 -122t143 -331q0 -164 -94 -282t-248 -151l478 -658h-285l-441 632h-42zM912 2004l-351 -321l-356 321l154 119l201 -190l200 190z" />
    <glyph glyph-name="rcaron" unicode="&#x159;" horiz-adv-x="766" 
d="M142 974h225v-87q63 65 111 89t126 25q78 0 175 -58l-103 -206q-64 46 -125 46q-184 0 -184 -278v-505h-225v974zM765 1445l-351 -321l-356 321l154 119l201 -190l200 190z" />
    <glyph glyph-name="Sacute" unicode="&#x15a;" horiz-adv-x="1194" 
d="M630 1354q-88 0 -152 -54t-64 -137q0 -113 168 -182l154 -63q188 -76 275 -186t87 -268q0 -212 -142 -352t-350 -140q-206 0 -337 119q-129 119 -161 335l236 52q16 -136 56 -188q72 -100 196 -100t195 73q72 73 72 195t-120 200q-42 28 -100 53l-149 62
q-317 134 -317 392q0 173 133 291t331 118q267 0 417 -260l-189 -112q-53 92 -101 120q-50 32 -138 32zM962 1959l-408 -276l-111 93l321 322z" />
    <glyph glyph-name="sacute" unicode="&#x15b;" horiz-adv-x="831" 
d="M413 799q-31 -1 -53 -21t-22 -52q0 -56 130 -111q179 -77 241 -142t62 -191q-1 -126 -103 -218t-245 -92q-245 0 -347 239l192 89q40 -70 71 -98t88 -29q114 0 114 104q0 60 -88 112q-34 17 -68 33q-35 16 -101 48t-112 88q-46 54 -45 166q0 112 87 194q89 83 216 83
q187 0 278 -193l-186 -99q-44 90 -109 90zM776 1454l-364 -330l-123 76l275 364z" />
    <glyph glyph-name="Scircumflex" unicode="&#x15c;" horiz-adv-x="1194" 
d="M630 1354q-88 0 -152 -54t-64 -137q0 -113 168 -182l154 -63q188 -76 275 -186t87 -268q0 -212 -142 -352t-350 -140q-206 0 -337 119q-129 119 -161 335l236 52q16 -136 56 -188q72 -100 196 -100t195 73q72 73 72 195t-120 200q-42 28 -100 53l-149 62
q-317 134 -317 392q0 173 133 291t331 118q267 0 417 -260l-189 -112q-53 92 -101 120q-50 32 -138 32zM273 1799l351 321l356 -321l-154 -119l-202 190l-199 -190z" />
    <glyph glyph-name="scircumflex" unicode="&#x15d;" horiz-adv-x="831" 
d="M413 799q-31 -1 -53 -21t-22 -52q0 -56 130 -111q179 -77 241 -142t62 -191q-1 -126 -103 -218t-245 -92q-245 0 -347 239l192 89q40 -70 71 -98t88 -29q114 0 114 104q0 60 -88 112q-34 17 -68 33q-35 16 -101 48t-112 88q-46 54 -45 166q0 112 87 194q89 83 216 83
q187 0 278 -193l-186 -99q-44 90 -109 90zM74 1243l351 321l356 -321l-154 -119l-202 190l-199 -190z" />
    <glyph glyph-name="Scedilla" unicode="&#x15e;" horiz-adv-x="1194" 
d="M630 1354q-88 0 -152 -54t-64 -137q0 -113 168 -182l154 -63q188 -76 275 -186t87 -268q0 -212 -142 -352t-350 -140q-206 0 -337 119q-129 119 -161 335l236 52q16 -136 56 -188q72 -100 196 -100t195 73q72 73 72 195t-120 200q-42 28 -100 53l-149 62
q-317 134 -317 392q0 173 133 291t331 118q267 0 417 -260l-189 -112q-53 92 -101 120q-50 32 -138 32zM787 -199l-239 -306l-146 73l199 309z" />
    <glyph glyph-name="scedilla" unicode="&#x15f;" horiz-adv-x="831" 
d="M602 -199l-239 -306l-146 73l199 309zM413 799q-31 -1 -53 -21t-22 -52q0 -56 130 -111q179 -77 241 -142t62 -191q-1 -126 -103 -218t-245 -92q-245 0 -347 239l192 89q40 -70 71 -98t88 -29q114 0 114 104q0 60 -88 112q-34 17 -68 33q-35 16 -101 48t-112 88
q-46 54 -45 166q0 112 87 194q89 83 216 83q187 0 278 -193l-186 -99q-44 90 -109 90z" />
    <glyph glyph-name="Scaron" unicode="&#x160;" horiz-adv-x="1194" 
d="M630 1354q-88 0 -152 -54t-64 -137q0 -113 168 -182l154 -63q188 -76 275 -186t87 -268q0 -212 -142 -352t-350 -140q-206 0 -337 119q-129 119 -161 335l236 52q16 -136 56 -188q72 -100 196 -100t195 73q72 73 72 195t-120 200q-42 28 -100 53l-149 62
q-317 134 -317 392q0 173 133 291t331 118q267 0 417 -260l-189 -112q-53 92 -101 120q-50 32 -138 32zM973 2008l-351 -321l-356 321l154 119l201 -190l200 190z" />
    <glyph glyph-name="scaron" unicode="&#x161;" horiz-adv-x="831" 
d="M770 1445l-351 -321l-356 321l154 119l201 -190l200 190zM413 799q-31 -1 -53 -21t-22 -52q0 -56 130 -111q179 -77 241 -142t62 -191q-1 -126 -103 -218t-245 -92q-245 0 -347 239l192 89q40 -70 71 -98t88 -29q114 0 114 104q0 60 -88 112q-34 17 -68 33
q-35 16 -101 48t-112 88q-46 54 -45 166q0 112 87 194q89 83 216 83q187 0 278 -193l-186 -99q-44 90 -109 90z" />
    <glyph glyph-name="Tcedilla" unicode="&#x162;" horiz-adv-x="988" 
d="M611 1325v-1325h-233v1325h-355v219h942v-219h-354zM383 -341v250h225v-349l-75 -151l-125 53l61 151l-5 46h-81z" />
    <glyph glyph-name="tcedilla" unicode="&#x163;" horiz-adv-x="560" 
d="M374 764v-764h-225v764h-96v210h96v357h225v-357h175v-210h-175zM151 -341v250h225v-349l-75 -151l-125 53l61 151l-5 46h-81z" />
    <glyph glyph-name="Tcaron" unicode="&#x164;" horiz-adv-x="988" 
d="M611 1325v-1325h-233v1325h-355v219h942v-219h-354zM849 2004l-351 -321l-356 321l154 119l201 -190l200 190z" />
    <glyph glyph-name="tcaron" unicode="&#x165;" horiz-adv-x="771" 
d="M374 764v-764h-225v764h-96v210h96v357h225v-357h175v-210h-175zM511 1286v250h225v-349l-75 -151l-125 53l61 151l-5 46h-81z" />
    <glyph glyph-name="Tbar" unicode="&#x166;" horiz-adv-x="988" 
d="M611 787v-787h-233v787h-113v196h113v342h-355v219h942v-219h-354v-342h100v-196h-100z" />
    <glyph glyph-name="tbar" unicode="&#x167;" horiz-adv-x="560" 
d="M374 391v-391h-225v391h-107v196h107v177h-96v210h96v357h225v-357h175v-210h-175v-177h114v-196h-114z" />
    <glyph glyph-name="Utilde" unicode="&#x168;" horiz-adv-x="1513" 
d="M418 1544v-930q0 -199 65 -291q97 -133 273 -133t274 133q65 89 65 291v930h233v-994q0 -244 -152 -402q-171 -176 -420 -176t-410 167t-161 411v994h233zM933 1874q56 0 124 108l127 -106q-96 -192 -260 -192q-56 0 -183 56q-91 46 -141 46t-106 -104l-131 111l29 41
q55 79 106 112t125 33q73 -1 177 -53t133 -52z" />
    <glyph glyph-name="utilde" unicode="&#x169;" horiz-adv-x="1116" 
d="M367 974v-559q0 -242 191 -242t191 242v559h225v-564q0 -118 -28 -198t-98 -141q-114 -99 -290 -99t-289 99q-71 61 -99 133t-28 206v564h225zM739 1332q56 0 124 108l127 -106q-96 -192 -260 -192q-56 0 -183 56q-91 46 -141 46t-106 -104l-131 111l29 41q55 79 106 112
t125 33q73 -1 177 -53t133 -52z" />
    <glyph glyph-name="Umacron" unicode="&#x16a;" horiz-adv-x="1513" 
d="M418 1544v-930q0 -199 65 -291q97 -133 273 -133t274 133q65 89 65 291v930h233v-994q0 -244 -152 -402q-171 -176 -420 -176t-410 167t-161 411v994h233zM409 1907h701v-180h-701v180z" />
    <glyph glyph-name="umacron" unicode="&#x16b;" horiz-adv-x="1116" 
d="M367 974v-559q0 -242 191 -242t191 242v559h225v-564q0 -118 -28 -198t-98 -141q-114 -99 -290 -99t-289 99q-71 61 -99 133t-28 206v564h225zM213 1343h701v-180h-701v180z" />
    <glyph glyph-name="Ubreve" unicode="&#x16c;" horiz-adv-x="1513" 
d="M418 1544v-930q0 -199 65 -291q97 -133 273 -133t274 133q65 89 65 291v930h233v-994q0 -244 -152 -402q-171 -176 -420 -176t-410 167t-161 411v994h233zM760 1868q152 0 174 157h185q-30 -335 -363 -335q-154 0 -248 88t-106 247h185q21 -157 173 -157z" />
    <glyph glyph-name="ubreve" unicode="&#x16d;" horiz-adv-x="1116" 
d="M367 974v-559q0 -242 191 -242t191 242v559h225v-564q0 -118 -28 -198t-98 -141q-114 -99 -290 -99t-289 99q-71 61 -99 133t-28 206v564h225zM575 1127q-153 1 -247 89t-107 246h185q22 -157 174 -157t173 157h185q-30 -335 -363 -335z" />
    <glyph glyph-name="Uring" unicode="&#x16e;" horiz-adv-x="1513" 
d="M418 1544v-930q0 -199 65 -291q97 -133 273 -133t274 133q65 89 65 291v930h233v-994q0 -244 -152 -402q-171 -176 -420 -176t-410 167t-161 411v994h233zM670 1892q0 -32 28 -60t71 -28t71 28t28 71t-28 71t-60 28t-50 -8t-32 -22t-20 -31q-8 -18 -8 -49zM551 1904
q0 90 64 154t154 63q89 0 153 -64t64 -154t-64 -154t-154 -64t-154 64q-63 65 -63 155z" />
    <glyph glyph-name="uring" unicode="&#x16f;" horiz-adv-x="1116" 
d="M367 974v-559q0 -242 191 -242t191 242v559h225v-564q0 -118 -28 -198t-98 -141q-114 -99 -290 -99t-289 99q-71 61 -99 133t-28 206v564h225zM466 1331q0 -31 28 -59t71 -29q43 1 71 29t28 70t-28 70t-60 29q-32 0 -50 -8q-18 -7 -32 -21t-20 -32q-8 -18 -8 -49z
M347 1342q0 90 64 154t154 64q89 0 153 -64t64 -154t-64 -154t-154 -64t-154 64q-63 64 -63 154z" />
    <glyph glyph-name="Uhungarumlaut" unicode="&#x170;" horiz-adv-x="1513" 
d="M418 1544v-930q0 -199 65 -291q97 -133 273 -133t274 133q65 89 65 291v930h233v-994q0 -244 -152 -402q-171 -176 -420 -176t-410 167t-161 411v994h233zM930 1959l-408 -276l-111 93l321 322zM1348 1959l-408 -276l-111 93l321 322z" />
    <glyph glyph-name="uhungarumlaut" unicode="&#x171;" horiz-adv-x="1116" 
d="M367 974v-559q0 -242 191 -242t191 242v559h225v-564q0 -118 -28 -198t-98 -141q-114 -99 -290 -99t-289 99q-71 61 -99 133t-28 206v564h225zM1102 1454l-334 -330l-99 76l243 364zM685 1454l-334 -330l-99 76l244 364z" />
    <glyph glyph-name="Uogonek" unicode="&#x172;" horiz-adv-x="1513" 
d="M418 1544v-930q0 -199 65 -291q97 -133 273 -133t274 133q65 89 65 291v930h233v-994q0 -244 -152 -402q-104 -108 -238 -149q-192 -128 -192 -223q0 -82 101 -82q55 0 145 20l-23 -166q-79 -49 -181 -49q-102 -1 -174 59q-73 60 -73 152t46 152q38 54 119 112
q-216 16 -369 174q-152 158 -152 402v994h233z" />
    <glyph glyph-name="uogonek" unicode="&#x173;" horiz-adv-x="1116" 
d="M367 974v-559q0 -242 191 -242t191 242v559h225v-564q0 -228 -118 -332q-61 -54 -128 -78q-194 -129 -194 -224q0 -82 101 -82q55 0 145 20l-23 -166q-79 -49 -181 -49q-102 -1 -174 59q-73 60 -73 152t46 152q38 55 121 113q-134 15 -215 86q-83 71 -111 143t-28 206
v564h225z" />
    <glyph glyph-name="Wcircumflex" unicode="&#x174;" horiz-adv-x="2172" 
d="M261 1544l402 -1032l420 1107l402 -1107l427 1032h253l-690 -1642l-397 1094l-414 -1095l-656 1643h253zM733 1806l351 321l356 -321l-154 -119l-202 190l-199 -190z" />
    <glyph glyph-name="wcircumflex" unicode="&#x175;" horiz-adv-x="1585" 
d="M264 974l255 -556l275 645l277 -645l252 556h252l-510 -1047l-271 627l-274 -627l-509 1047h253zM441 1250l351 321l356 -321l-154 -119l-202 190l-199 -190z" />
    <glyph glyph-name="Ycircumflex" unicode="&#x176;" horiz-adv-x="1229" 
d="M730 0h-233v667l-504 877h268l353 -617l354 617h268l-506 -877v-667zM258 1800l351 321l356 -321l-154 -119l-202 190l-199 -190z" />
    <glyph glyph-name="ycircumflex" unicode="&#x177;" horiz-adv-x="1113" 
d="M449 181l-438 793h261l298 -560l278 560h254l-776 -1504h-257zM220 1243l351 321l356 -321l-154 -119l-202 190l-199 -190z" />
    <glyph glyph-name="Ydieresis" unicode="&#x178;" horiz-adv-x="1229" 
d="M730 0h-233v667l-504 877h268l353 -617l354 617h268l-506 -877v-667zM698 1844q0 58 42 100t101 42t101 -42t42 -102t-42 -101q-42 -42 -102 -42t-101 42q-41 45 -41 103zM249 1844q0 58 42 100t101 42q58 0 100 -42t42 -102t-42 -101q-42 -42 -100 -42q-60 0 -102 42
q-41 45 -41 103z" />
    <glyph glyph-name="Zacute" unicode="&#x179;" horiz-adv-x="1280" 
d="M1193 219v-219h-1124l758 1325h-634v219h1017l-758 -1325h741zM1012 1959l-408 -276l-111 93l321 322z" />
    <glyph glyph-name="zacute" unicode="&#x17a;" horiz-adv-x="1113" 
d="M1044 212v-212h-1025l631 764h-497v210h942l-630 -762h579zM962 1454l-364 -330l-123 76l275 364z" />
    <glyph glyph-name="Zdotaccent" unicode="&#x17b;" horiz-adv-x="1280" 
d="M1193 219v-219h-1124l758 1325h-634v219h1017l-758 -1325h741zM532 1851q0 61 44 105q47 44 108 44q62 0 106 -44t44 -107t-44 -107t-108 -43q-62 -1 -106 45t-44 107z" />
    <glyph glyph-name="zdotaccent" unicode="&#x17c;" horiz-adv-x="1113" 
d="M1044 212v-212h-1025l631 764h-497v210h942l-630 -762h579zM455 1290q0 62 44 106q47 44 108 44t105 -44t45 -106q-1 -62 -45 -106t-106 -44t-107 44q-44 44 -44 106z" />
    <glyph glyph-name="Zcaron" unicode="&#x17d;" horiz-adv-x="1280" 
d="M1193 219v-219h-1124l758 1325h-634v219h1017l-758 -1325h741zM1040 2004l-351 -321l-356 321l154 119l201 -190l200 190z" />
    <glyph glyph-name="zcaron" unicode="&#x17e;" horiz-adv-x="1113" 
d="M1044 212v-212h-1025l631 764h-497v210h942l-630 -762h579zM957 1445l-351 -321l-356 321l154 119l201 -190l200 190z" />
    <glyph glyph-name="florin" unicode="&#x192;" horiz-adv-x="1313" 
d="M135 -370q-25 0 -74 3l37 213q150 0 209 53q75 70 112 286l107 609h-188l24 182h198l43 250q36 208 136.5 307t274.5 99q62 0 145 -21l-41 -213q-56 21 -118 21q-62 1 -100 -47t-64 -176l-42 -220h253l-25 -182h-260l-109 -606q-34 -186 -67 -277t-92 -150
q-131 -131 -359 -131z" />
    <glyph glyph-name="Scommaaccent" unicode="&#x218;" horiz-adv-x="1194" 
d="M801 -211l-262 -308l-146 77l211 319zM630 1354q-88 0 -152 -54t-64 -137q0 -113 168 -182l154 -63q188 -76 275 -185.5t87 -268.5q0 -212 -142 -352t-350 -140q-206 0 -337 119q-129 119 -161 335l236 52q16 -136 56 -188q72 -100 196 -100t195.5 73t71.5 195t-81 175
t-139 78l-149 62q-317 134 -317 392q0 173 133 291t331 118q267 0 417 -260l-189 -112q-53 92 -101 120q-50 32 -138 32z" />
    <glyph glyph-name="scommaaccent" unicode="&#x219;" horiz-adv-x="831" 
d="M413 799q-31 -1 -53 -21t-22 -52q0 -56 130 -111q179 -77 241 -142t62 -191q-1 -126 -103 -218t-245 -92q-245 0 -347 239l192 89q40 -70 71 -98t88 -29q114 0 114 104q0 60 -88 112q-34 17 -68 33q-35 16 -101 48t-112 88q-46 54 -45 166q0 112 87 194q89 83 216 83
q187 0 278 -193l-186 -99q-44 90 -109 90zM601 -199l-239 -306l-146 73l199 309z" />
    <glyph glyph-name="quoteleft" unicode="&#x2bb;" horiz-adv-x="669" 
d="M317 961l-201 78l285 572l152 -62z" />
    <glyph glyph-name="quoteleft" unicode="&#x2018;" horiz-adv-x="669" 
d="M317 961l-201 78l285 572l152 -62z" />
    <glyph glyph-name="quoteright" unicode="&#x2bc;" horiz-adv-x="669" 
d="M353 1611l200 -78l-285 -572l-152 63z" />
    <glyph glyph-name="quoteright" unicode="&#x2019;" horiz-adv-x="669" 
d="M353 1611l200 -78l-285 -572l-152 63z" />
    <glyph glyph-name="circumflex" unicode="&#x2c6;" 
d="M226 1243l351 321l356 -321l-154 -119l-202 190l-199 -190z" />
    <glyph glyph-name="caron" unicode="&#x2c7;" 
d="M933 1445l-351 -321l-356 321l154 119l201 -190l200 190z" />
    <glyph glyph-name="breve" unicode="&#x2d8;" 
d="M575 1127q-153 1 -247 89t-107 246h185q22 -157 174 -157t173 157h185q-30 -335 -363 -335z" />
    <glyph glyph-name="dotaccent" unicode="&#x2d9;" 
d="M428 1290q0 62 44 106q47 44 108 44q62 0 106 -44t44 -106t-44 -106t-108 -44q-62 0 -106 44t-44 106z" />
    <glyph glyph-name="ring" unicode="&#x2da;" 
d="M511 1331q0 -31 28.5 -59.5t70.5 -28.5t70.5 28.5t28.5 70.5t-28.5 70.5t-60.5 28.5t-49.5 -8t-31 -21.5t-21 -31.5t-7.5 -49zM392 1342q0 90 64 154t154 64t154 -64t64 -154t-64 -154t-154 -64t-155 64q-63 64 -63 154z" />
    <glyph glyph-name="ogonek" unicode="&#x2db;" horiz-adv-x="1332" 
d="M664 -224q0 -82 101 -82q55 0 145 20l-23 -166q-79 -49 -181 -49q-102 -1 -174 59q-73 60 -73 152t46 152q46 66 157 138h196q-194 -129 -194 -224z" />
    <glyph glyph-name="tilde" unicode="&#x2dc;" 
d="M739 1332q56 0 124 108l127 -106q-96 -192 -260 -192q-56 0 -183 56q-91 46 -141 46t-106 -104l-131 111l29 41q55 79 106 112t125 33q73 -1 177 -53t133 -52z" />
    <glyph glyph-name="hungarumlaut" unicode="&#x2dd;" 
d="M1143 1454l-334 -330l-99 76l243 364zM726 1454l-334 -330l-99 76l244 364z" />
    <glyph glyph-name="gravecmb" unicode="&#x300;" horiz-adv-x="0" 
d="M-960 1454l211 110l276 -364l-124 -76z" />
    <glyph glyph-name="acutecmb" unicode="&#x301;" horiz-adv-x="0" 
d="M-195 1454l-364 -330l-123 76l275 364z" />
    <glyph glyph-name="circumflexcmb" unicode="&#x302;" horiz-adv-x="0" 
d="M-931 1243l351 321l356 -321l-154 -119l-202 190l-199 -190z" />
    <glyph glyph-name="tildecmb" unicode="&#x303;" horiz-adv-x="0" 
d="M-418 1332q56 0 124 108l127 -106q-96 -192 -260 -192q-56 0 -183 56q-91 46 -141 46t-106 -104l-131 111l29 41q55 79 106 112t125 33q72 -1 176 -53t134 -52z" />
    <glyph glyph-name="macroncmb" unicode="&#x304;" horiz-adv-x="0" 
d="M-928 1343h701v-180h-701v180z" />
    <glyph glyph-name="brevecmb" unicode="&#x306;" horiz-adv-x="0" 
d="M-582 1127q-154 1 -248 89t-106 246h185q21 -157 173 -157t174 157h185q-30 -335 -363 -335z" />
    <glyph glyph-name="dotaccentcmb" unicode="&#x307;" horiz-adv-x="0" 
d="M-729 1290q0 62 44 106q47 44 108 44t105 -44t45 -106q-1 -62 -45 -106t-106 -44t-107 44q-44 44 -44 106z" />
    <glyph glyph-name="dieresiscmb" unicode="&#x308;" horiz-adv-x="0" 
d="M-512 1283q0 59 42 101t102 41q58 1 100 -41t42 -102t-42 -101q-44 -41 -102 -41t-100 42t-42 101zM-930 1284q0 58 42 100t101 41q59 1 101 -41t42 -102t-42 -101q-44 -41 -102 -41t-101 42q-41 44 -41 102z" />
    <glyph glyph-name="ringcmb" unicode="&#x30a;" horiz-adv-x="0" 
d="M-646 1331q0 -31 28 -59t71 -29q43 1 71 29t28 70t-28 70t-60 29q-32 0 -50 -8q-18 -7 -32 -21t-20 -32q-8 -18 -8 -49zM-765 1342q0 90 64 154t154 64q89 0 153 -64t64 -154t-64 -154t-154 -64t-154 64q-63 64 -63 154z" />
    <glyph glyph-name="hungarumlautcmb" unicode="&#x30b;" horiz-adv-x="0" 
d="M-14 1454l-334 -330l-99 76l243 364zM-431 1454l-334 -330l-99 76l244 364z" />
    <glyph glyph-name="caroncmb" unicode="&#x30c;" horiz-adv-x="0" 
d="M-224 1445l-351 -321l-356 321l154 119l201 -190l200 190z" />
    <glyph glyph-name="commaaccent" unicode="&#x326;" horiz-adv-x="0" 
d="M-354 -341v250h225v-349l-75 -151l-125 53l61 151l-5 46h-81z" />
    <glyph glyph-name="cedillacmb" unicode="&#x327;" horiz-adv-x="0" 
d="M-370 -199l-239 -306l-146 73l199 309z" />
    <glyph glyph-name="ogonekcmb" unicode="&#x328;" horiz-adv-x="0" 
d="M-667 -224q0 -82 101 -82q55 0 145 20l-23 -166q-78 -49 -180 -49q-102 -1 -175 59t-73 152t46 152q46 66 157 138h196q-194 -129 -194 -224z" />
    <glyph glyph-name="soliduslongoverlaycmb" unicode="&#x338;" horiz-adv-x="0" 
d="M-192 1706l186 -82l-884 -2046l-184 83z" />
    <glyph glyph-name="Deltagreek" unicode="&#x394;" horiz-adv-x="1544" 
d="M382 216h774l-387 1046zM51 0l592 1544h250l599 -1544h-1441z" />
    <glyph glyph-name="Omegagreek" unicode="&#x3a9;" horiz-adv-x="1544" 
d="M66 0v208h368q-192 117 -280 268t-88 364q0 318 202 530t504 212t504 -212q203 -212 203 -529q0 -214 -88 -365t-279 -268h366v-208h-614v186q373 211 373 635q0 203 -103 348q-144 205 -352 205t-342 -160t-133 -403q0 -414 375 -625v-186h-616z" />
    <glyph glyph-name="pi" unicode="&#x3c0;" horiz-adv-x="1439" 
d="M251 0v902h-175v209h1288v-209h-172v-902h-232v902h-478v-902h-231z" />
    <glyph glyph-name="zerowidthjoiner" unicode="&#x200d;" horiz-adv-x="0" 
 />
    <glyph glyph-name="endash" unicode="&#x2013;" horiz-adv-x="1313" 
d="M237 593h838v-196h-838v196z" />
    <glyph glyph-name="emdash" unicode="&#x2014;" horiz-adv-x="1336" 
d="M0 593h1336v-196h-1336v196z" />
    <glyph glyph-name="quotesinglbase" unicode="&#x201a;" horiz-adv-x="669" 
d="M353 289l200 -78l-285 -571l-152 63z" />
    <glyph glyph-name="quotedblleft" unicode="&#x201c;" horiz-adv-x="1069" 
d="M317 961l-201 78l285 572l152 -62zM717 961l-201 78l285 572l152 -62z" />
    <glyph glyph-name="quotedblright" unicode="&#x201d;" horiz-adv-x="1069" 
d="M753 1611l200 -78l-285 -572l-152 63zM353 1611l200 -78l-285 -572l-152 63z" />
    <glyph glyph-name="quotedblbase" unicode="&#x201e;" horiz-adv-x="1069" 
d="M753 289l200 -78l-285 -571l-152 63zM353 289l200 -78l-285 -571l-152 63z" />
    <glyph glyph-name="dagger" unicode="&#x2020;" horiz-adv-x="1313" 
d="M544 1689h226v-356h318v-218h-318v-1525h-226v1525h-318v218h318v356z" />
    <glyph glyph-name="daggerdbl" unicode="&#x2021;" horiz-adv-x="1313" 
d="M544 1689h226v-356h318v-218h-318v-609h318v-217h-318v-699h-226v699h-318v217h318v609h-318v218h318v356z" />
    <glyph glyph-name="bullet" unicode="&#x2022;" horiz-adv-x="1544" 
d="M454 788q0 134 94 230q94 94 226 94t224 -96t92 -230t-93 -228t-224 -95q-131 0 -226 95q-93 96 -93 230z" />
    <glyph glyph-name="ellipsis" unicode="&#x2026;" horiz-adv-x="1934" 
d="M1750 110q0 -58 -40 -98t-99 -40t-99 40t-40 98t41 99t98 41t98 -41t41 -99zM1106 110q0 -58 -40 -98t-100 -40q-58 0 -98 40t-41 98q0 58 40.5 99t98.5 41t99 -41t41 -99zM183 110q0 58 41 99t98 41t98 -41t41 -99q-1 -58 -41 -98t-98 -40t-98.5 40t-40.5 98z" />
    <glyph glyph-name="perthousand" unicode="&#x2030;" horiz-adv-x="2784" 
d="M2137 349q-1 -82 57 -140t140 -58t140 58t58 140t-58 140t-139 58q-82 0 -140 -58t-58 -140zM1962 350q0 148 111 256q113 107 263 107q150 1 261 -107q110 -108 110 -258t-110 -256t-264 -106t-263 108q-108 108 -108 256zM1229 349q-1 -82 57 -140t140 -58t140 58
t58 140t-58 140t-139 58q-82 0 -140 -58t-58 -140zM1054 350q0 148 111 256q113 107 263 107q150 1 261 -107q110 -108 110 -258t-110 -256t-264 -106t-263 108q-108 108 -108 256zM1326 1571l109 -62l-884 -1534l-110 66zM251 1196q0 -82 58 -140t140 -58t140 58t58 140
t-58 139.5t-140 57.5t-140 -57.5t-58 -139.5zM77 1198q0 148 111 255q113 107 263 107t260 -108t110 -256q0 -150 -109.5 -257t-263.5 -107t-263 109q-108 109 -108 257z" />
    <glyph glyph-name="guilsinglleft" unicode="&#x2039;" horiz-adv-x="751" 
d="M328 495l300 -383l-150 -111l-385 493l385 510l149 -110z" />
    <glyph glyph-name="guilsinglright" unicode="&#x203a;" horiz-adv-x="751" 
d="M424 495l-300 399l150 110l384 -510l-385 -493l-149 111z" />
    <glyph glyph-name="fraction" unicode="&#x2044;" horiz-adv-x="376" 
d="M576 1571l109 -62l-884 -1534l-109 66z" />
    <glyph glyph-name="Euro" unicode="&#x20ac;" horiz-adv-x="1264" 
d="M1028 -28q-330 0 -564 231q-196 196 -228 463h672v-163h-384q37 -78 105 -146q164 -167 399 -167v-218zM1028 1354q-235 0 -399 -170q-70 -73 -111 -160h390v-163h-673q27 237 190 430q240 283 603 283v-220z" />
    <glyph glyph-name="trademark" unicode="&#x2122;" horiz-adv-x="1627" 
d="M600 664l189 960l293 -650l293 650l189 -960h-164l-82 479l-236 -495l-236 495l-83 -479h-163zM352 1393v-729h-160v729h-194v151h548v-151h-194z" />
    <glyph glyph-name="Omega" unicode="&#x2126;" horiz-adv-x="1544" 
d="M66 0v208h368q-192 117 -280 268t-88 364q0 318 202 530t504 212t504 -212q203 -212 203 -529q0 -214 -88 -365t-279 -268h366v-208h-614v186q373 211 373 635q0 203 -103 348q-144 205 -352 205t-342 -160t-133 -403q0 -414 375 -625v-186h-616z" />
    <glyph glyph-name="partialdiff" unicode="&#x2202;" 
d="M583 833q-123 0 -208 -98t-85 -241t84 -243q86 -99 206 -99t203 101t83 245t-80 239.5t-203 95.5zM1103 593q1 -279 -143 -447t-371 -168t-381 154q-153 154 -153 368q-1 214 139 358q140 146 341 146q182 0 314 -139q-64 143 -127 218t-163 133q-173 101 -386 127
l30 203q241 -30 383 -97q151 -66 270 -192q247 -262 247 -664z" />
    <glyph glyph-name="Delta" unicode="&#x2206;" horiz-adv-x="1544" 
d="M382 216h774l-387 1046zM51 0l592 1544h250l599 -1544h-1441z" />
    <glyph glyph-name="product" unicode="&#x220f;" horiz-adv-x="1657" 
d="M89 1737h1479v-216h-189v-1883h189v-216h-608v216h188v1883h-639v-1883h186v-216h-606v216h188v1883h-188v216z" />
    <glyph glyph-name="summation" unicode="&#x2211;" horiz-adv-x="1544" 
d="M1410 1737v-554h-209l-23 337h-861l582 -898l-582 -984h883l13 335h218v-551h-1374v241l570 959l-570 876v239h1353z" />
    <glyph glyph-name="minus" unicode="&#x2212;" horiz-adv-x="1313" 
d="M124 710v186h1065v-186h-1065z" />
    <glyph glyph-name="divisionslash" unicode="&#x2215;" horiz-adv-x="376" 
d="M576 1571l109 -62l-884 -1534l-109 66z" />
    <glyph glyph-name="bulletoperator" unicode="&#x2219;" horiz-adv-x="632" 
d="M177 771q0 58 41 99t98 41t98 -40.5t41 -98.5q-1 -58 -41 -98t-98 -41q-58 0 -98.5 40t-40.5 98z" />
    <glyph glyph-name="radical" unicode="&#x221a;" horiz-adv-x="1544" 
d="M1544 1923v-216h-434l-444 -1707h-299l-162 661h-205v217h395l65 -254q17 -62 45 -298l4 -32h19q41 303 152 737l229 892h635z" />
    <glyph glyph-name="infinity" unicode="&#x221e;" horiz-adv-x="1544" 
d="M433 957q-71 1 -117 -49t-46 -120t47 -121q48 -49 118 -49q113 0 223 170q-109 169 -225 169zM1111 618q70 0 117 49t47 120t-47 121t-118 49q-112 0 -223 -169q111 -170 224 -170zM406 422q-161 0 -263 102t-102 264q0 160 103 263t262 103q204 0 362 -213
q154 213 372 213q162 0 263 -102t101 -264q0 -161 -101 -264t-260 -103q-212 0 -365 215q-163 -214 -372 -214z" />
    <glyph glyph-name="integral" unicode="&#x222b;" 
d="M331 -370q109 0 126 102q6 37 6 191l1 1270q0 288 28 356q70 189 314 189q78 0 184 -25l-46 -207q-77 23 -115 23q-87 0 -116 -62q-17 -46 -17 -209l-1 -135v-1156q0 -223 -14 -303t-68 -140q-90 -99 -272 -99q-96 0 -172 21l46 207q77 -23 116 -23z" />
    <glyph glyph-name="approxequal" unicode="&#x2248;" 
d="M342 757q102 0 254 -67t216 -67t105 29q40 30 87 110l135 -79q-76 -156 -157 -219q-81 -64 -197 -64q-71 0 -210 57l-119 49q-62 28 -123 28q-100 0 -183 -155l-131 85q69 159 145 226t178 67zM341 1183q101 0 255 -67t216 -67q64 0 105 29q40 30 87 110l135 -78
q-74 -153 -156 -219q-83 -65 -197 -65q-72 0 -211 57l-119 49q-62 28 -123 28q-102 0 -183 -155l-131 86q69 158 145 225t177 67z" />
    <glyph glyph-name="notequal" unicode="&#x2260;" 
d="M1081 1084v-208h-370l-91 -185h461v-208h-556l-120 -244l-152 71l85 173h-261v208h355l92 185h-447v208h542l126 255l151 -71l-90 -184h275z" />
    <glyph glyph-name="lessequal" unicode="&#x2264;" 
d="M1081 287v-216h-1004v216h1004zM1081 1478v-220l-758 -342l758 -342v-220l-1004 460v197z" />
    <glyph glyph-name="greaterequal" unicode="&#x2265;" 
d="M77 71v216h1004v-216h-1004zM77 354v220l758 342l-758 342v220l1004 -468v-197z" />
    <glyph glyph-name="lozenge" unicode="&#x25ca;" horiz-adv-x="1544" 
d="M772 1230l-332 -457l332 -457l333 457zM772 1605l602 -832l-602 -832l-601 832z" />
    <glyph glyph-name="apple" unicode="&#xf8ff;" horiz-adv-x="1618" 
d="M1149 1596q0 -44 -31 -120t-94 -141q-60 -55 -106 -69t-111 -21q2 151 79 263t257 153q6 -21 6 -65zM512 1266q76 0 184 -31t144 -31q37 0 141 35t178 35q123 0 219 -66q60 -44 107 -102q-80 -70 -117 -123q-68 -94 -68 -216q0 -121 71 -223t163 -130q-47 -137 -125 -256
q-131 -195 -264 -195q-55 0 -146 33q-89 27 -155 27t-149 -32t-132 -32q-155 0 -307 261t-152 505t115 393q117 148 293 148z" />
    <glyph glyph-name="Dieresis" horiz-adv-x="1517" 
d="M855 1844q0 58 42 100t101 42t101 -42t42 -102t-41.5 -101.5t-101.5 -41.5t-102 42q-41 45 -41 103zM406 1844q0 58 42 100t101 42t101 -42t41 -102q1 -60 -41 -101q-42 -42 -102 -42t-101 42q-41 45 -41 103z" />
    <glyph glyph-name="Grave" horiz-adv-x="1517" 
d="M407 1959l198 139l320 -322l-111 -93z" />
    <glyph glyph-name="judge" horiz-adv-x="1435" 
d="M1010 -211l-262 -308l-146 77l210 319z" />
    <glyph glyph-name="up" horiz-adv-x="604" 
d="M677 1959l-384 -276l-111 93l305 322z" />
    <glyph glyph-name="oak" horiz-adv-x="604" 
d="M-72 1959l189 139l305 -322l-111 -93z" />
    <glyph glyph-name="uniE770" horiz-adv-x="510" 
d="M294 1284q0 58 42 100t101 42t101 -42t42 -102t-42 -101q-44 -41 -102 -41t-101 42q-41 44 -41 102zM-68 1284q0 58 41 100t101 41q60 1 101 -41q42 -42 42 -102t-42 -101q-44 -41 -103 -41q-60 0 -100 43t-40 101z" />
    <glyph glyph-name="uniE773" horiz-adv-x="510" 
d="M607 1454l-332 -330l-124 76l253 364z" />
    <glyph glyph-name="uniE774" horiz-adv-x="510" 
d="M-96 1454l203 110l252 -364l-124 -76z" />
    <glyph glyph-name="uniE772" horiz-adv-x="510" 
d="M-82 1243l335 321l340 -321l-154 -119l-186 190l-184 -190z" />
    <glyph glyph-name="ash" horiz-adv-x="510" 
d="M142 1286v250h225v-349l-75 -151l-125 53l61 151l-5 46h-81z" />
    <glyph glyph-name="yea" horiz-adv-x="1725" 
d="M894 1868q150 0 173 158h185q-30 -335 -363 -335q-153 1 -247 89t-107 246h185q24 -158 174 -158z" />
    <glyph glyph-name="ice" horiz-adv-x="604" 
d="M-51 1802l351 321l356 -321l-154 -119l-202 190l-199 -190z" />
    <glyph glyph-name="sure" horiz-adv-x="1517" 
d="M421 1802l351 321l356 -321l-154 -119l-202 190l-199 -190z" />
    <glyph glyph-name="hung" horiz-adv-x="1517" 
d="M934 1891q56 0 124 108l127 -106q-96 -192 -260 -192q-56 0 -183 56q-91 46 -141 46t-106 -104l-131 111l29 41q55 79 106 112t125 33q72 0 176 -52t134 -53z" />
    <glyph glyph-name="fee" horiz-adv-x="1517" 
d="M675 1892q0 -31 28.5 -59.5t70.5 -28.5t70.5 28.5t28.5 70.5t-28.5 70.5t-60.5 28.5t-49.5 -8t-31 -21.5t-21 -31.5t-7.5 -49zM556 1904q0 90 64 154t154 63q90 0 154 -64t64 -154t-64 -154t-154 -64t-155 64q-63 65 -63 155z" />
    <glyph glyph-name="Caron" horiz-adv-x="1280" 
d="M1040 2004l-351 -321l-356 321l154 119l201 -190l200 190z" />
    <glyph glyph-name="Acute" 
d="M962 1959l-408 -276l-111 93l321 322z" />
    <glyph glyph-name="eat" horiz-adv-x="604" 
d="M348 1842q0 60 42 102q44 42 102 42t100 -42t42 -102t-42 -101.5t-101 -41.5t-101 41.5t-42 101.5zM112 1699q-60 0 -100 43q-40 42 -41 100q0 58 41 102q42 42 101 42t101 -42t42 -102t-42 -101.5t-102 -41.5z" />
    <glyph glyph-name="kick" horiz-adv-x="604" 
d="M151 1851q0 61 44 105q47 44 108 44t105 -44t45 -107q-1 -63 -45 -107t-106 -43q-62 -1 -107 45q-44 46 -44 107z" />
    <glyph glyph-name="uniF6C3" horiz-adv-x="510" 
d="M155 -341v250h225v-349l-75 -151l-125 53l61 151l-5 46h-81z" />
    <glyph glyph-name="uniE784" horiz-adv-x="510" 
d="M376 1373v-250h-225v349l75 151l125 -53l-61 -151l5 -46h81z" />
    <glyph glyph-name="Hungarumlaut" horiz-adv-x="1830" 
d="M1078 1959l-408 -276l-111 93l321 322zM1496 1959l-408 -276l-111 93l321 322z" />
    <glyph glyph-name="Macron" 
d="M241 1907h701v-180h-701v180z" />
    <glyph glyph-name="ooze" horiz-adv-x="604" 
d="M3 1907h603v-180h-603v180z" />
    <glyph glyph-name="uniE775" horiz-adv-x="510" 
d="M0 1343h510v-180h-510v180z" />
    <glyph glyph-name="dotlessj" horiz-adv-x="679" 
d="M453 845v-1199h-226v1199h226z" />
    </font>
</defs>
</svg>
